<?xml version="1.0" standalone="no"?>
<!DOCTYPE svg PUBLIC "-//W3C//DTD SVG 1.1//EN" "http://www.w3.org/Graphics/SVG/1.1/DTD/svg11.dtd" >
<svg xmlns="http://www.w3.org/2000/svg">
<metadata></metadata>
<defs>
<font id="opendyslexicbold_italic" horiz-adv-x="1670" >
<font-face units-per-em="2048" ascent="1638" descent="-410" />
<missing-glyph horiz-adv-x="800" />
<glyph unicode="&#xfb01;" horiz-adv-x="1484" d="M256 963q4 34 4 37q0 13 1 20t1 17l6 73q58 -4 156 -10q2 102 19 167q26 99 87 155q68 61 185 92q57 15 203 31l79 9q0 -4 -1.5 -16.5t-2.5 -20.5q-4 -43 -11 -89q-5 -36 -5 -38q-68 -17 -122 -29l-54 -13q-37 0 -70 -10q-40 -12 -58 -36q-38 -54 -46 -178q-2 -11 0 -13 q0 -1 -0.5 -3t-1 -5.5t-0.5 -6.5h149q246 0 460 11l20 -21q-41 -470 -41 -819q0 -41 1 -63q0 -45 1 -67q0 -10 3 -130q-63 8 -122 13q-44 4 -65 6q-13 1 -33 2.5t-26 1.5q21 432 78 926q-96 -2 -143 -2h-143h-75q-48 0 -76 1q-22 -452 -61 -917q-64 -2 -130 -6 q-46 -4 -69 -5q-26 -1 -61 -5q65 368 121 935q-59 0 -157 6zM1085 1269q3 25 17 124l14 101l18 17q39 1 93 8q18 1 47 5q8 1 22.5 2.5t20.5 1.5l-5 -30q-8 -46 -11 -68q-2 -9 -4 -30q-4 -24 -9 -59q-4 -35 -9 -60q-33 -4 -92 -6z" />
<glyph unicode="&#xfb02;" horiz-adv-x="1554" d="M262 953l2 58q1 7 1.5 24t0.5 25t0.5 24.5t1.5 23.5l54 -2q30 -2 50 -3q17 -1 49 -3q5 18 6 39q6 53 13 98q10 64 31 110q13 28 31 50q63 62 150 87q58 17 152 17q265 0 510 22q-110 -630 -130 -1286q5 -1 14 -1h11q9 0 39 -2q7 -1 22 -1q3 0 8.5 -0.5t8.5 -1.5 q-2 -32 -2 -62q0 -32 2 -94v-15q0 -12 1 -19v-19v-15q-44 5 -152 15q-31 2 -85 5.5t-67 4.5q16 615 109 1329q-127 -6 -248 -6h-53q-90 0 -127 -33q-32 -34 -40 -125q1 -9 1 -30v-31v-40q43 -1 136 -1h134l-8 -79l-6 -74h-133q-88 0 -133 1q-10 -437 -34 -906q-35 -2 -73 -3 q-14 0 -41 -2t-40 -2q-83 -4 -155 -11q82 421 134 928q-85 2 -145 6z" />
<glyph horiz-adv-x="0" />
<glyph unicode="&#xd;" horiz-adv-x="2048" />
<glyph horiz-adv-x="600" />
<glyph horiz-adv-x="600" />
<glyph unicode=" "  horiz-adv-x="800" />
<glyph unicode="&#x09;" horiz-adv-x="800" />
<glyph unicode="&#xa0;" horiz-adv-x="800" />
<glyph unicode="!" horiz-adv-x="722" d="M181 1l28 152v-1q1 8 4.5 28t5.5 31q4 23 11 59l16 15q49 11 97 11q46 0 109 -16v-47q0 -44 2 -132v-21q0 -19 1 -28v-27v-22q-75 34 -131 34t-143 -36zM223 475q54 362 117 974l25 16q34 -10 74 -10q46 0 113 22q-25 -275 -44 -547q0 -7 -1.5 -23t-2.5 -25t-2.5 -25 t-1.5 -23v-73q0 -48 -1 -72v-32v-39q-1 -14 -1 -40v-32v-71q-79 13 -133 13q-57 0 -142 -13z" />
<glyph unicode="&#x22;" horiz-adv-x="977" d="M285 890q63 270 63 537v58q7 -1 87 -6q8 -1 23 -2t23 -1q7 0 20.5 -0.5t20.5 -1.5l18 -19q-5 -294 -36 -552q-8 -1 -25 -1.5t-26 -0.5q-19 -1 -59 -3q-61 -3 -109 -8zM681 903q11 272 60 572q64 0 126 5l45 3l21 -23q-42 -207 -42 -412q0 -94 7 -158q-48 5 -109 8 q-20 1 -58 3q-9 0 -26 0.5t-24 1.5z" />
<glyph unicode="#" horiz-adv-x="1562" d="M134 413q2 10 3 22q0 4 1.5 12.5t2.5 13.5q1 4 2 12.5t1 13.5q0 4 0.5 11t1.5 10t1.5 8.5t0.5 8.5q0 4 6 41q0 3 0.5 8t1.5 7l176 2q37 0 147 2q20 60 54 163t44 132q-143 0 -291 5l4 71q4 36 4 96q140 -6 335 -8q33 108 125 388h179q-11 -32 -34 -97t-34 -97 q-35 -98 -66 -195h64h60q39 0 60 1h64q78 214 151 393q9 0 32.5 1.5t37.5 2.5t37 2.5t32 1.5h40q-101 -238 -157 -399q244 8 287 10q-5 -28 -16 -109l-8 -61q-53 -1 -161 -3q-27 0 -81 -0.5t-81 -1.5q-4 -12 -8 -24.5t-9 -27.5t-8 -23q-21 -63 -46 -143q-13 -40 -24 -76 q40 0 60 -1q80 -2 143 -2q31 -1 84 -1q-2 -18 -3 -41q-1 -26 -3 -42l-5 -83q-54 1 -117 3q-20 0 -59 0.5t-58 1.5q-34 0 -47 1q-14 1 -48 1q-21 -69 -48 -148q-10 -30 -18 -58q-21 -67 -38 -126q-11 -34 -18 -58q-46 2 -82 2h-94l71 219q7 24 15 45q3 9 13 40q10 33 13 41 q7 17 15 44h-123q-36 0 -126 -2q-45 -133 -134 -360v2l-12 -34l-81 -4l-99 -4q87 203 155 399q-21 0 -69.5 -1.5t-74.5 -2.5q-107 -4 -143 -5zM649 586h88q39 0 58 1h57h43q6 18 17 52t15 45q11 33 33 97l32 98h-121q-81 0 -125 -1q-1 -3 -2.5 -7t-1.5 -6q-4 -7 -5 -14 q-4 -12 -11.5 -35t-10.5 -33q-17 -54 -43 -128q-3 -10 -7 -21t-8.5 -25.5t-7.5 -22.5zM992 879h27l-19 26z" />
<glyph unicode="$" horiz-adv-x="1275" d="M148 121l12 84l5 40q1 13 5 46q1 8 3 23.5t3 22.5l2.5 22.5t1.5 16.5q174 -117 364 -125l19 176l18 174q-180 37 -263 123q-78 83 -78 240q5 80 53 155q50 77 123 116q109 50 245 59l7 55q1 8 5 41q0 7 1.5 21t2.5 22q1 12 3.5 41.5t4.5 43.5h29q13 -1 29 -1q7 -1 30 -1 h29l-24 -220q181 -9 323 -48l-11 -80l-13 -92q-135 71 -315 83q-16 -146 -41 -397l-2 -20q84 -15 149 -38q82 -29 134 -75q84 -78 84 -227q0 -74 -35 -146q-37 -76 -95 -122q-110 -78 -282 -92l-2 -96q-2 -58 -2 -85q-1 -14 -1.5 -42.5t-0.5 -42.5l-21 -19q-50 2 -88 2h-47 h-42l11 60q11 56 11 58q2 12 5.5 34t6.5 40t6 34q1 5 4.5 25.5t5.5 32.5q-211 12 -372 78zM389 936q0 -73 65 -126q57 -47 137 -55q5 42 13 126q9 88 13 126q1 12 7 71q1 7 8 73q-109 -14 -170 -63q-73 -59 -73 -152zM591 754l2 1h-2v-1zM677 246q82 14 144 36q35 11 52 50 q12 28 12 71q0 66 -61 113q-53 42 -129 55q-5 -63 -11 -194zM688 568l5 4q1 0 2 -1q0 8 1 11z" />
<glyph unicode="%" horiz-adv-x="2024" d="M280 1086q0 90 17 159q20 86 70 148q79 96 224 98h6q1 -1 5 -1h13q155 -5 246 -116q76 -92 76 -245q0 -89 -25 -171q-27 -90 -87 -156q-96 -104 -237 -104q-75 0 -135 25q-69 28 -104 85q-69 100 -69 278zM434 -1q117 149 281 379q146 204 270 385q121 177 175.5 256 t155.5 219t185 248l75 3q13 0 24 1q5 1 16 1.5t16 0.5q15 1 55 4q-147 -188 -294 -394q-117 -164 -280 -403q-327 -476 -495 -695q-11 -1 -33.5 -1.5t-33.5 -0.5q-46 -2 -67 -3h-50zM443 1077q0 -93 31 -152q39 -75 118 -75q91 0 140 105q36 77 36 178q0 81 -39 142 q-44 68 -116 74h-10q-79 0 -122 -81q-37 -70 -37 -154v-13q-1 -4 -1 -12v-12zM1168 358q0 94 25 173q31 96 87 155v-1q95 108 246 108q155 0 229 -110l-1 1q72 -100 72 -277q0 -91 -17 -160q-22 -91 -72 -150l1 1q-38 -51 -103 -77q-55 -22 -123 -22q-179 0 -268 116l1 -1 q-77 91 -77 244zM1337 382q0 -85 41 -141q46 -63 126 -63q86 0 127 97q29 69 29 168q0 84 -32 140q-39 68 -111 68q-94 0 -142 -93q-38 -73 -38 -176z" />
<glyph unicode="&#x26;" horiz-adv-x="1725" d="M130 401q0 153 80 286q75 125 205 219q-73 121 -73 225q0 75 29 142q33 75 89 119l-1 -1q59 49 142 72q66 18 154 18q148 0 333 -73q-26 -43 -47 -76q-18 -28 -26 -41l-21 -35q-179 94 -305 94q-88 0 -148 -48q-65 -52 -65 -137q0 -55 41 -117q22 -35 81 -102v1 q137 -146 257 -282l193 -215q47 71 72 157t42 201h44h52q35 0 52 1h44q-6 -30 -12 -63q-21 -107 -28 -136q-7 -31 -15 -64q-33 -123 -114 -237l114 -127l159 -177q-25 3 -62 6q-24 1 -74 5t-74 5q-14 1 -35.5 2.5t-27.5 1.5l-130 143q-204 -159 -474 -159q-102 0 -189 26 q-101 30 -161 94q-101 102 -101 272zM289 473q0 -127 91 -197q83 -64 211 -64q170 0 314 112q-93 106 -148 170q-98 112 -148 169l-137 159q-88 -78 -131 -157q-52 -93 -52 -192zM459 836l13 -14l14 13z" />
<glyph unicode="'" horiz-adv-x="559" d="M298 918q15 112 31 287q16 201 20 287q49 -19 89 -19q38 0 71 10l24 -20q-33 -279 -47 -547q-52 17 -86 17q-37 0 -102 -15z" />
<glyph unicode="(" horiz-adv-x="816" d="M170 456q0 114 9 226q34 218 156 443q105 196 274 396q51 0 139 16l19 -32q-156 -219 -247 -403q-115 -232 -137 -442v1q-5 -113 -5 -203t9 -227q17 -203 112 -462q-119 21 -226 23q-103 298 -103 664z" />
<glyph unicode=")" horiz-adv-x="790" d="M34 -226q168 237 268 434q120 237 154 452v-1q11 117 11 253q0 338 -109 620l15 -2l-4 15q88 -15 159 -19q71 -159 103 -326q30 -160 30 -348q0 -374 -129 -635q-101 -201 -241 -413q-121 0 -257 -30z" />
<glyph unicode="*" horiz-adv-x="1204" d="M264 859q68 40 168 94q64 33 171 92q-163 90 -309 186q1 1 3.5 4.5t4.5 6.5l9 15q2 3 5 7t4 7q3 4 7 10q3 5 3 7t3 7q1 3 9 14q7 12 22 30q40 -28 244 -163q20 -12 23 -14q5 -4 23 -16l12 148l15 198h132q-26 -242 -34 -346q112 66 164 98q31 19 85 52t76 46q2 -6 20 -48 q10 -28 20 -50l-8 -24q-187 -103 -309 -168l-15 -9q114 -67 155 -91q99 -60 152 -94q-6 -9 -15 -24q-10 -17 -38 -61l-16 -24q-25 17 -73 49.5t-70 47.5l-66 44t-80 53l-6 -70q-15 -183 -20 -276h-131q3 50 15 164q4 35 5 48q0 7 2 21t2 21q1 9 8 91q-28 -17 -82 -49 q-6 -4 -36.5 -21.5t-46.5 -27.5l-161 -96l-21 50q-2 4 -6 15t-6 16q-2 6 -4.5 11.5l-5 11t-3.5 7.5z" />
<glyph unicode="+" horiz-adv-x="1513" d="M173 552l16 185q171 -4 508 -4l24 292l18 229h185q-30 -258 -52 -522q288 0 507 4l-16 -184q-170 2 -254 2h-254q-19 -215 -39 -521h-184l14 145q5 43 9 88q3 32 9 98q11 104 17 190h-116q-39 -1 -117 -1h-66q-24 -1 -73 -1h-72h-64z" />
<glyph unicode="," horiz-adv-x="618" d="M-26 -276q5 13 17 39t22 49.5t19 44.5q23 55 55 134l23 60q6 76 13 189l20 18q10 -1 29 -1h30q87 0 192 13q-4 -17 -18 -112q-13 -85 -16 -111l-42 -59q-18 -24 -52.5 -68.5t-44.5 -57.5q-48 -63 -100 -124q-5 -1 -15.5 -1.5t-16.5 -0.5q-33 -2 -82 -8q-8 -1 -19.5 -2.5 t-13.5 -1.5z" />
<glyph unicode="-" horiz-adv-x="861" d="M133 475q43 73 43 121q0 21 -3 36l18 23h17q5 -1 17 -1h34q93 0 184 3q100 3 184 6l101 2q-44 -73 -44 -119q0 -20 12 -61q-182 0 -281 -2q-198 -4 -282 -8z" />
<glyph unicode="." horiz-adv-x="654" d="M70 8q31 149 31 280v37l22 20q63 -6 124 -6q39 0 86 3q7 0 22.5 1t23.5 1q20 1 40 3q-33 -149 -33 -278q0 -8 1 -13v-18q0 -12 1 -17v-13q-96 8 -156 8q-64 0 -162 -8z" />
<glyph unicode="/" horiz-adv-x="836" d="M-6 -181q75 162 181 405q145 335 176 406q15 35 44 102.5t41 95.5q86 202 179 409q27 61 89 195l16 12q25 2 37 4q28 4 43 6t43 6q31 4 37 5q-120 -283 -345 -874q-188 -490 -293 -748q-123 -5 -248 -24z" />
<glyph unicode="0" horiz-adv-x="1281" d="M192 558q0 82 7 189q22 156 52 273q41 154 109 260q66 95 174 149q101 51 207 51h28q103 0 191 -44q93 -47 135 -133q73 -150 73 -381q0 -78 -7 -178q-22 -168 -49 -274q-40 -153 -111 -261q-70 -99 -171 -150q-98 -49 -207 -49h-31q-102 0 -190 44q-92 46 -137 132 q-73 147 -73 372zM417 717q0 -140 33 -228q20 -53 68.5 -82.5t107.5 -29.5h10h3q1 -1 3 -1h7q109 0 185 92q60 72 101 208q27 91 43 224q8 77 8 139q0 86 -14 151q-12 83 -69 140q-58 55 -137 55h-4q-2 -1 -5 -1h-24q-77 0 -146 -51q-70 -52 -95 -128q-46 -115 -62 -249 q-13 -107 -13 -239z" />
<glyph unicode="1" horiz-adv-x="1361" d="M234 11q6 35 21 138q2 11 9 62.5t11 76.5l18 17q164 13 295 14q9 108 21 238q3 38 9.5 116t10.5 116q26 308 38 469q-128 -24 -338 -44q1 24 3 100q0 36 1 54v46q145 8 331 38l27 4q15 -1 47 -1h46h27q22 0 62 2q19 0 27 1q-64 -566 -106 -1139q170 -5 307 -18 q-6 -146 -6 -238v-56q-234 31 -434 31q-186 0 -427 -27z" />
<glyph unicode="2" horiz-adv-x="1404" d="M192 7q6 33 12 72q9 57 13 78q16 106 23 151q135 116 338 267q150 105 224 180q4 5 21 23.5t23 25t20 22.5t21.5 25t18 23t19 26.5t15.5 24.5q50 82 50 166q0 101 -75 158q-66 50 -172 50q-176 0 -418 -110q1 23 3 51q2 34 4 118v50q222 54 314 65q57 7 106 7 q103 0 187 -22q99 -26 165 -80q98 -88 98 -236q0 -113 -53 -225q-42 -88 -134 -198l-31 -32q-10 -11 -31.5 -32t-32.5 -31q-21 -22 -65 -64v1q-128 -123 -168 -231q272 -2 456 -19q-2 -44 -2 -72q-1 -13 -1 -39.5t-1 -40.5q-1 -27 -1 -80v-72q-242 30 -462 30 q-229 0 -484 -30z" />
<glyph unicode="3" horiz-adv-x="1334" d="M175 56q13 78 25 165q2 15 6 43.5t6 42.5t10 78q149 -83 344 -83q93 0 151 14q82 18 137 62q44 33 68 60q33 40 33 77q0 81 -69 143q-50 42 -120 56q-56 10 -139 10h-134l5 67q1 8 5 55q1 12 2.5 32t1.5 23h26h29q10 -1 29 -1h26q15 -1 46 -1h46q112 0 189 63 q82 67 82 180q0 100 -95 144q-69 32 -171 32q-155 0 -381 -53q1 6 1.5 19.5t0.5 20.5q0 31 1 47q2 64 2 87q248 41 403 41q118 0 206 -24q109 -30 171 -93q71 -74 71 -193q0 -121 -67 -222q-69 -104 -182 -144q104 -21 157 -100q59 -89 59 -206q0 -113 -31 -203 q-40 -111 -122 -173q-96 -69 -233 -95q-96 -19 -237 -19q-175 0 -358 48z" />
<glyph unicode="4" horiz-adv-x="1337" d="M134 421q3 19 9 69q1 8 3.5 32.5t4.5 35.5q372 526 650 890l16 8q88 2 128 4q93 4 128 5q-55 -386 -88 -857q36 0 102 -2h20h24q8 -1 23 -1h16q-5 -41 -7 -94q-2 -24 -2 -45q0 -8 -0.5 -23.5t-1.5 -21.5q-15 1 -46 2.5t-47 1.5l-93 3q-1 -19 -1 -57v-57q0 -138 5 -290 q-68 5 -142 8l-75 3q-25 1 -68 1l20 177q15 145 25 219h-79q-258 0 -524 -11zM335 607q36 0 107.5 0.5t106.5 1.5q69 1 214 1q45 452 74 697q-128 -173 -252 -347q-196 -275 -250 -353zM837 1307l45 59l-35 15q-5 -32 -10 -74z" />
<glyph unicode="5" horiz-adv-x="1303" d="M162 48q19 109 26 163q14 102 23 162q154 -82 342 -82q81 0 141 17q74 19 127 65q48 43 70 80q28 48 28 103q0 54 -19 103.5t-56 80.5q-86 60 -224 60q-148 0 -317 -74q13 141 26 365q12 206 13 364l22 19q192 -21 387 -21q166 0 388 20l-26 -167q-170 -15 -365 -15 q-130 0 -234 5q-1 -27 -3.5 -83.5t-4.5 -86.5q-4 -56 -5 -84q-4 -58 -7 -88q110 25 169 25q109 0 196 -28q97 -33 164 -101q109 -116 109 -315q0 -121 -34 -219q-43 -123 -130 -190q-88 -68 -210 -96q-98 -22 -227 -22q-203 0 -369 40z" />
<glyph unicode="6" horiz-adv-x="1314" d="M191 551q0 205 37 372q50 226 162 363q86 98 224 150q122 45 259 45q123 0 274 -39l-10 -16l18 2q-14 -88 -27 -187q-144 59 -273 59q-93 0 -164 -26q-89 -32 -139 -95q-57 -69 -92 -165q-27 -74 -46 -177q65 67 148.5 105t172.5 38q97 0 174 -30q89 -35 139 -100l-1 1 q50 -60 76 -144q20 -71 20 -165q0 -120 -31 -217q-38 -119 -117 -195q-72 -67 -178 -96q-87 -24 -196 -24q-113 0 -206 43q-103 47 -150 139q-74 137 -74 359zM410 467q0 -88 84 -131q65 -34 170 -34q97 0 175 48q85 53 95 144v21q0 8 1 12v11q0 120 -52 190q-56 82 -180 82 q-119 0 -198 -84q-44 -50 -70 -123q-25 -70 -25 -136z" />
<glyph unicode="7" horiz-adv-x="1250" d="M343 1319q1 21 1 73v73l23 19q217 -30 436 -30q233 0 489 33q0 -5 -1 -10q-1 -2 -1 -7.5t-1 -8.5q-1 -16 -4 -26l-8 -46q-145 -348 -368 -1027q-49 -152 -109 -326q-17 1 -56 1h-57q-85 0 -132 -2q-94 -4 -134 -7q85 157 185 356q84 167 177 359q23 48 138 280 q66 133 142 278q-140 -9 -281 -9q-216 0 -439 27z" />
<glyph unicode="8" horiz-adv-x="1333" d="M143 357q0 90 26 165q31 90 90 149h-1q77 83 195 120q-84 31 -134 113q-48 79 -48 174q0 83 32.5 160.5t95.5 130.5q71 52 164 74q80 19 175 19q99 0 171 -18q90 -23 153 -74q85 -80 85 -206q0 -123 -66 -227q-73 -113 -188 -143q116 -35 184 -122q72 -91 72 -214 q0 -104 -32 -190q-39 -104 -117 -159q-78 -56 -187 -81q-84 -19 -199 -19q-116 0 -197 19q-107 25 -175 80q-99 79 -99 249zM376 437q0 -58 57 -113q65 -60 200 -60q134 0 211 61q82 68 83 156q0 107 -60 168q-66 72 -192 70q-119 0 -208 -71q-43 -40 -67 -97 q-24 -55 -24 -114zM461 1114q0 -81 63 -136t145 -55h11q7 0 11 1q3 -1 11 -1h10q102 0 175 73q74 74 74 176q0 89 -75 137q-63 38 -161 38q-97 0 -173 -50q-84 -55 -88 -150v-2q-3 -18 -3 -31z" />
<glyph unicode="9" horiz-adv-x="1313" d="M240 61q13 77 23 152q1 13 5 39t5 39q6 50 9 73q144 -62 274 -62q192 0 299 66l-2 -2q57 47 88 130q19 51 37 156q-64 -67 -147 -104.5t-172 -37.5q-96 0 -173 30q-89 33 -140 100v-1q-93 110 -93 313q0 118 30 216q37 119 116 190q75 69 178 98q85 24 197 24 q111 0 200 -41q100 -46 150 -132q79 -152 79 -379q0 -203 -39 -369q-51 -220 -161 -357q-86 -100 -220 -150q-118 -44 -256 -44q-140 0 -278 41l15 10zM385 1002q0 -53 14 -92q17 -47 56 -64q82 -33 233 -35q148 0 239 37q59 22 86 104q18 54 18 132q0 114 -61 174 q-78 81 -244 81q-142 0 -239 -81q-52 -46 -78 -118q-24 -68 -24 -138z" />
<glyph unicode=":" horiz-adv-x="711" d="M166 2q4 34 9 75q10 72 18 160q2 20 7 74l17 17q70 9 119 9q58 0 128 -12q-4 -44 -5 -77q-4 -56 -6 -85q-2 -33 -5.5 -91t-4.5 -71q-75 28 -131 28q-57 0 -146 -27zM244 809q3 33 7 96q3 49 6 93l6 86l27 16q51 -20 106 -20q52 0 145 33q-8 -68 -17 -153 q-13 -123 -16 -154q-76 -14 -134 -14q-54 0 -130 17z" />
<glyph unicode=";" horiz-adv-x="671" d="M47 -323q19 55 23 68q3 8 8 23t9 27.5t8 24.5q30 91 49 142l34 97q1 13 3.5 41t4.5 43q0 3 1.5 21l2.5 30q1 11 2.5 29t1.5 23h55q13 0 19 1h19q73 0 141 -6q0 -6 -1.5 -26t-2.5 -33q-5 -54 -5 -59l-6 -77l-86 -143q-24 -38 -58 -94q-28 -44 -58 -94q-76 -5 -164 -38z M235 777q5 45 9 91q3 50 6 90q0 7 1.5 23.5t2.5 25.5q1 17 3 49l22 17q28 -4 62 -4q77 0 175 36l-2 -45q-14 -105 -29 -265q-83 -22 -165 -22q-44 0 -85 4z" />
<glyph unicode="&#x3c;" horiz-adv-x="1578" d="M174 590q5 28 9 55q10 58 18 121q4 28 6 55l187 46q306 75 563 144q343 92 558 162q-1 -5 -6 -19.5t-8 -24.5q-6 -17 -34 -103q-12 -41 -13 -45l-13 -14q-196 -60 -489 -137q-160 -42 -492 -125l326 -159q304 -145 539 -266q-10 -110 -10 -256q-99 52 -269 135 q-44 21 -135.5 66t-135.5 66q-402 196 -601 299z" />
<glyph unicode="=" horiz-adv-x="1645" d="M169 352q40 98 59 199l20 16q283 4 635 4q309 0 542 -4q0 -113 27 -215q-316 11 -628 11q-160 0 -327 -3q-133 -2 -328 -8zM226 911l21 24q271 -11 592 -11q301 0 666 12q-40 -94 -60 -185q-304 -6 -619 -6q-299 0 -581 6q-5 98 -19 160z" />
<glyph unicode="&#x3e;" horiz-adv-x="1574" d="M104 136q23 64 46 145q20 71 31 115q276 80 747 202l237 60q-82 42 -164 82q-138 66 -431 209q-144 70 -264 133l-11 18q1 5 1 15t1 15q0 10 2 30l4 64q1 6 1 17.5t1 16.5q1 11 1 28q140 -72 311 -156q212 -106 312 -154q383 -188 516 -255q-24 -122 -35 -233l-210 -53 q-325 -81 -549 -141q-296 -80 -547 -158z" />
<glyph unicode="?" horiz-adv-x="1092" d="M321 1218q3 41 4 61q0 23 1 34t1 27q0 17 1 28t1 27q194 84 389 84q88 0 148 -15q79 -20 130 -65q77 -67 77 -192q0 -100 -60 -195q-34 -54 -133 -159l-79 -81l-10 -15q-2 -3 -7 -11t-8 -11q-3 -5 -9 -13t-7 -9l-10 -14q-14 -16 -25 -42q-19 -51 -25 -167q-1 -10 -1 -30 l-3 -30l-20 -17q-119 0 -246 -5l8 83q5 56 8 83t13.5 72.5t26.5 82.5q35 68 124 150q19 15 25 20q6 6 24 20l49 42l15 12q67 52 96 83q50 53 50 97q0 80 -58 132q-55 47 -137 47q-74 0 -173 -33q-77 -27 -180 -81zM379 19q3 21 9 67.5t9 69.5q9 68 15 136l19 18q105 5 191 5 h59l-11 -147q-4 -41 -5 -70q-5 -61 -5 -71h-58q-87 0 -223 -8z" />
<glyph unicode="@" horiz-adv-x="1934" d="M152 445q0 198 66 380q72 199 214 335q133 115 315 179q165 59 349 59q192 0 350 -72q165 -78 259 -220q101 -156 101 -366q0 -134 -43 -257q-50 -143 -139 -232q-82 -71 -201 -108q-114 -36 -232 -36l8 101l2 25q-128 -121 -281 -121q-81 0 -152 30t-115 89 q-76 102 -76 253q0 101 29 194q33 105 100 173q109 120 285 120q157 0 265 -126v8q0 4 5 51q1 11 2.5 28.5t1.5 21.5q21 0 35 1q27 0 42 1q29 0 43 1h34q-46 -397 -65 -692q124 24 199 118q53 71 79 165q22 81 22 175q0 159 -76 280h1q-82 116 -221 179q-132 60 -287 60 q-237 0 -427 -116q-169 -103 -259 -290q-84 -172 -84 -375q0 -94 28 -158v1q42 -90 147 -218l-1 1q77 -90 208 -129q103 -31 252 -33q261 2 469 149q19 -47 42 -97q7 -18 23 -52q4 -8 11 -22.5t10 -21.5q-263 -186 -574 -186q-178 0 -324 56q-166 64 -265 179v-1 q-90 95 -135 238q-40 126 -40 278zM725 582q0 -98 61 -156q57 -54 155 -54q110 0 171 64q80 80 80 219q0 98 -61 153q-60 54 -154 54q-103 0 -172 -65q-66 -62 -78 -181q-2 -22 -2 -34z" />
<glyph unicode="A" d="M34 7q92 158 188.5 346t158.5 318t157 337q169 363 210 447h197q31 -104 110 -386q96 -342 154 -525q93 -294 195 -537q-43 4 -151 12q-31 2 -85 5.5t-68 4.5q-29 119 -51 233q-103 3 -306 3q-201 0 -309 -3q-15 -39 -52 -118q-47 -95 -56 -116q-7 0 -30.5 -1.5 t-37.5 -2.5q-25 -2 -77 -6q-55 -4 -78 -5q-37 -3 -69 -6zM525 507q40 1 118 1h117h67q22 -1 66 -1h107q-36 147 -49 205q-32 136 -49 205q-9 38 -37 161q-13 53 -39 161l-120 -297q-113 -275 -181 -435zM813 1294q4 -18 7 -27q4 -13 6 -28l23 52z" />
<glyph unicode="B" horiz-adv-x="1480" d="M213 7q131 729 131 1458l22 19q171 -24 439 -29q159 -2 259 -40q85 -33 132 -104q43 -69 43 -152q0 -115 -54 -213q-61 -110 -165 -144q120 -30 197 -117q81 -92 81 -213q0 -108 -31 -189q-40 -100 -122 -153q-82 -54 -191 -76q-86 -17 -201 -17q-266 0 -540 -30z M474 329q192 6 291 6q145 0 224 40l-1 -1q41 23 62 74q18 46 18 95q0 42 -59 103v-1q-38 33 -96 48q-49 11 -112 11h-288l-4 -42q-25 -255 -35 -333zM529 878q57 -1 96 -1h35h130q123 0 193 46q42 33 68 93q22 51 22 99q0 101 -76 151q-63 41 -168 41q-147 0 -276 7 q-7 -195 -24 -436zM533 1316l20 -2q0 7 1 10v10z" />
<glyph unicode="C" horiz-adv-x="1529" d="M195 631q0 179 47 341q58 199 171 317q107 103 266 152q129 40 295 40q257 0 417 -113l-18 -10l24 -2q-4 -19 -9 -52q-1 -8 -4.5 -28t-5.5 -31q-10 -55 -17 -112q-83 83 -186 127t-210 44q-115 0 -205 -27q-112 -33 -184 -106h1q-93 -98 -132 -241q-34 -120 -34 -258 q0 -85 19 -146q23 -75 72 -118l-1 1q67 -54 173 -76q82 -17 193 -17q110 0 218 46q116 49 213 136q-1 -14 -6 -165q-4 -118 -4 -164v-42q-189 -118 -446 -118q-156 0 -285 41q-146 46 -237 149q-67 84 -98 202q-27 99 -27 230z" />
<glyph unicode="D" horiz-adv-x="1606" d="M213 7q132 680 132 1332v63q0 42 -1 63l21 19q174 -21 390 -26q211 -10 320 -34q176 -39 282 -134q73 -73 106 -186q27 -93 27 -217q0 -201 -40 -356q-56 -218 -190 -331q-120 -94 -302 -133q-118 -25 -323 -33q-155 -7 -210 -10q-143 -10 -212 -17zM496 404q73 3 215 5 q10 0 15 1h15q104 2 189 14q100 15 178 59h-1q64 43 110 128q32 59 64 157q3 31 3 94q0 181 -83 284q-71 70 -194 104q-89 24 -222 30q-111 0 -222 6q-17 -475 -67 -882zM543 1287q3 -1 10 -1h10q0 7 1 10v10z" />
<glyph unicode="E" horiz-adv-x="1441" d="M215 7q123 726 129 1458l23 19q219 -30 442 -30q218 0 478 31l-14 -83q-12 -76 -16 -105q-223 -23 -441 -23q-134 0 -264 7q-4 -103 -12 -198q-3 -36 -7.5 -105t-6.5 -95q152 -2 222 -2q157 0 431 6q-10 -56 -16 -134q0 -14 -1 -25t-1 -25h-172q-61 -1 -172 -1h-307 q-8 -105 -16 -179q-1 -15 -5 -44.5t-5 -43.5q-1 -12 -4.5 -43t-5.5 -48q142 5 252 5q220 0 455 -19q-3 -46 -5 -161q-1 -29 -1 -85v-77q-247 30 -472 30q-216 0 -488 -30z" />
<glyph unicode="F" horiz-adv-x="1139" d="M175 6q131 697 168 1454l23 18q176 -24 354 -24q207 0 444 34l-2 -18q-3 -18 -5 -28q-2 -9 -4.5 -27t-3.5 -26t-3.5 -26.5t-4.5 -27.5q-2 -10 -5 -28l-2 -18q-218 -25 -428 -25q-102 0 -159 3q-8 -66 -11 -97q-12 -110 -22 -187q-6 -48 -12 -99h33q13 -1 33 -1h89 q179 0 379 5q-2 -12 -4.5 -38.5t-3.5 -32.5q-1 -7 -2.5 -19.5t-1.5 -18.5q-1 -17 -3 -34l-8 -79q-29 1 -95 1h-96h-87q-29 -1 -87 -1h-156q-23 -360 -49 -633q-204 -17 -268 -27z" />
<glyph unicode="G" horiz-adv-x="1620" d="M197 617q0 193 43 351q55 206 177 324q104 97 263 146q139 43 291 43q139 0 250 -24q132 -29 235 -95l-9 -53q-3 -15 -6 -36q-1 -8 -3 -22.5t-3 -21.5q-2 -13 -4.5 -28t-4.5 -30.5t-3 -21.5q-188 173 -446 173q-115 0 -209 -27q-115 -33 -189 -101q-86 -93 -128 -237 q-34 -117 -34 -254q0 -96 16 -156q22 -83 75 -127l-1 1q66 -48 172 -69q79 -15 192 -17h1h-1q12 1 37.5 1.5t38.5 0.5q85 0 150 23q31 10 57 34l2 2q0 12 2 35t2 35q0 11 1.5 34t2.5 35q-94 2 -147 2h-146l19 223h260q85 0 132 1h131q-29 -319 -29 -611q-220 -140 -527 -140 q-165 0 -291 38q-153 46 -244 148q-64 78 -97 198q-28 101 -28 223zM1154 389l2 2v1z" />
<glyph unicode="H" horiz-adv-x="1612" d="M193 7q142 698 150 1456l23 19q87 -13 201 -18q-11 -373 -38 -675h37q11 -1 37 -1h96q135 0 445 2q31 358 83 675l91 7q34 2 69 6q7 1 19 2.5t18 1.5q20 2 32 3q-115 -656 -115 -1245q0 -115 5 -233q-33 4 -121 12q-24 1 -65 5q-12 1 -32 2.5t-26 1.5q2 253 17 476 q-102 2 -153 2h-153h-155q-45 0 -155 -2q-30 -269 -61 -476q-14 -1 -56.5 -4.5t-67.5 -5.5q-47 -4 -66 -5q-35 -3 -59 -6z" />
<glyph unicode="I" horiz-adv-x="709" d="M182 -5q85 678 159 1456l26 16q39 -12 69 -12q42 0 114 32q-34 -382 -61 -745q-27 -338 -49 -746q-70 41 -122 41q-50 0 -136 -42z" />
<glyph unicode="J" horiz-adv-x="844" d="M-18 -402q10 68 29 250q0 5 1 12.5t2 17.5t2 17q0 8 1 17t2 17.5t1 12.5l60 -5l40 -3q96 15 158 51q81 48 93 128v-1q121 979 171 1324l19 17q123 6 212 25q-99 -597 -188 -1392q-15 -129 -32 -188q-29 -101 -98 -170q-57 -48 -140 -75q-57 -19 -151 -34l-50 -9 q-26 0 -66 -5q-6 -1 -18 -2.5t-17 -1.5q-16 -1 -31 -3z" />
<glyph unicode="K" horiz-adv-x="1658" d="M174 7q155 736 169 1453l22 19q77 -9 194 -15q-5 -97 -19 -291q-15 -181 -27 -291q239 214 478 418q50 43 94 82q26 22 94 81q125 6 182 11l107 7l-302 -263q-10 -9 -242 -212l-243 -213q17 -21 29 -34t29 -34q57 -63 172.5 -192t153.5 -171q165 -184 326 -358 q-259 27 -494 32q-93 139 -205 322q-76 123 -196 327q-14 -336 -44 -656q-7 0 -29 -1.5t-36 -2.5q-48 -4 -73 -5q-50 -4 -140 -13z" />
<glyph unicode="L" horiz-adv-x="1378" d="M193 7q131 711 150 1456l23 18q100 -15 191 -19q-31 -618 -94 -1118q133 5 240 5q209 0 437 -19q-11 -104 -15 -159q-7 -75 -12 -160q-232 26 -443 26q-225 0 -477 -30z" />
<glyph unicode="M" horiz-adv-x="1843" d="M182 8q161 709 161 1454l21 19q139 -14 285 -20q84 -214 150 -406q64 -187 135 -412l57 109q255 488 392 711q43 1 147 9q52 4 77 6q29 1 71 5q-112 -604 -112 -1129q0 -176 11 -346q-23 2 -74 6t-60 5q-12 1 -35.5 2.5t-34.5 1.5q-13 1 -35 2.5t-29 1.5q10 562 117 1178 q-124 -264 -340 -794v1l-9 -22.5t-11.5 -28.5t-10.5 -25q-22 -50 -32 -77h-67q-17 0 -26 1h-27h-27q-9 -1 -28 -1h-67l-62 254q-98 422 -180 698q-1 -570 -83 -1185q-39 -1 -137 -7q-10 -1 -62 -5t-75 -6z" />
<glyph unicode="N" horiz-adv-x="1579" d="M167 7q149 697 169 1424l22 19q67 -8 187 -16h-1q15 0 25 -1t25 -1q105 -206 304 -656q7 -15 24.5 -54t25.5 -59q74 -166 92 -203q9 -19 26.5 -57t26.5 -56q45 592 146 1121q36 3 47 4q17 1 55 5q19 1 55 5t46 5q-131 -713 -131 -1344q0 -57 2 -135q-70 8 -150 14 q-31 2 -86 5.5t-64 4.5q-120 240 -307 675q-62 147 -102 244q-54 130 -105 241q-4 -563 -60 -1163q-7 0 -29 -1.5t-35 -2.5q-45 -4 -71 -5q-50 -4 -137 -13z" />
<glyph unicode="O" horiz-adv-x="1605" d="M199 618q0 195 40 347q53 200 170 323h-1q93 102 233 150q122 42 268 42q144 0 259 -44q134 -51 207 -149q63 -84 91 -196q24 -96 24 -220q0 -189 -44 -348q-52 -192 -166 -322q-98 -104 -238 -150q-124 -41 -273 -41q-137 0 -252 45q-127 49 -202 147q-61 79 -90 196 q-26 103 -26 220zM416 675q0 -73 17 -123q20 -64 68 -93q60 -38 149 -55q73 -14 162 -14q193 0 322 70q81 52 117 180q23 86 23 203q0 197 -75 319v-1q-49 70 -129 107t-173 37q-97 0 -182 -35q-95 -39 -152 -112q-77 -92 -115 -232q-32 -118 -32 -251z" />
<glyph unicode="P" horiz-adv-x="1280" d="M154 7q149 680 188 1451l22 18q184 -21 421 -21q94 0 167 -12q87 -14 155 -54q68 -45 100 -121q27 -67 27 -151q0 -115 -36 -222q-41 -122 -123 -198q-69 -64 -172 -93q-84 -24 -191 -24h-108q-70 0 -109 -1q-39 -303 -82 -549q-15 -1 -59 -4.5t-70 -5.5q-56 -5 -130 -13 zM512 849q176 -2 263 -2q109 0 192 77q88 81 89 187q3 23 3 43q0 114 -90 164q-67 36 -171 36q-157 0 -236 3q-24 -277 -50 -508zM544 1358q3 -1 10 -1h8l2 19z" />
<glyph unicode="Q" horiz-adv-x="1847" d="M202 649q0 184 41 332q52 185 165 304q91 95 226 145q118 44 257 44q145 0 268 -45q140 -51 219 -148q60 -76 91 -191q26 -96 26 -218q0 -140 -23 -263q-28 -150 -90 -263q-84 -144 -163 -228q99 -126 213 -259q8 -9 21 -24q4 -5 13 -15.5t13 -15.5q18 -22 27 -32 q4 -4 7.5 -8.5t7.5 -9t5 -6.5q-258 27 -490 33l-44 53h1q-37 46 -72 87q-19 23 -72 88q-29 -3 -63 -3q-147 0 -258 43q-131 51 -204 150q-64 87 -95 213q-27 103 -27 237zM417 685q0 -77 17 -129q19 -64 71 -97q57 -36 119 -54t151 -32l37 53q10 16 27 39l26 39 q110 -53 217 -69q110 55 157 175q39 97 39 234q0 191 -77 310q-46 70 -130 109q-80 36 -174 36q-212 0 -334 -145q-74 -88 -113 -226q-33 -113 -33 -243z" />
<glyph unicode="R" horiz-adv-x="1649" d="M218 7q130 705 130 1395v85q197 -26 452 -31q185 -5 291 -67q72 -49 106 -127q30 -70 30 -155q0 -127 -52 -235q-63 -128 -175 -172q60 -33 107 -106q25 -41 70 -136l13 -30l-1 1q37 -88 95 -213q82 -175 99 -210q-47 5 -150 15q-30 2 -83 5.5t-69 4.5q-67 182 -127 372 l1 -2q-57 133 -114 184l1 -1q-61 43 -164 43h-64q-40 0 -64 -1q-26 -271 -73 -598q-35 -1 -129 -9t-130 -12zM551 841q37 -1 112 -1h112q96 0 186 57q99 63 109 148q0 6 1 9v8q2 30 2 44q0 122 -66 168q-83 59 -194 61q-20 1 -58 1t-58 1q-80 2 -119 5q-3 -84 -11 -250 q-6 -132 -16 -251zM558 1344l20 -2q0 7 1 10v10z" />
<glyph unicode="S" horiz-adv-x="1389" d="M169 78q10 59 26 165q21 153 22 165q209 -121 435 -121q152 0 247 61q38 24 62 53q30 35 30 68q0 88 -117 145q-68 32 -201 58l-33 7q-89 19 -157 47q-82 34 -136 90q-78 85 -78 242q0 99 32 178q37 92 115 147q74 52 186 78q81 19 196 19q217 0 417 -53l-6 -12l16 -1 l-9 -59q0 -3 -1.5 -14t-2.5 -18q-1 -6 -3 -19t-3 -19q-2 -14 -5.5 -39t-4.5 -32q-213 91 -389 91q-139 0 -233 -50l2 1q-100 -66 -100 -184q0 -75 40 -118q38 -29 94 -47q28 -10 104 -28l59 -12q63 -13 101 -22t90.5 -30t93.5 -49q73 -51 112 -136q34 -78 34 -170 q0 -110 -29 -190q-36 -101 -117 -159q-89 -59 -213 -83q-83 -16 -216 -18q-239 0 -460 68z" />
<glyph unicode="T" horiz-adv-x="1555" d="M344 1465l22 19q291 -30 586 -30q306 0 646 32l-11 -66q-4 -25 -12 -61t-12 -61q-202 -8 -320 -8q-116 0 -181 3q-58 -827 -67 -1258q-72 2 -129 2h-73h-22h-26q-9 -1 -27 -1h-22q92 692 151 1256h-49q-72 -2 -107 -2h-49q-178 0 -296 9q0 68 -2 166z" />
<glyph unicode="U" horiz-adv-x="1523" d="M291 441q0 55 7 127q45 448 45 827v69l22 19q107 -14 193 -20q-7 -323 -41 -740q-5 -58 -5 -104q0 -139 51 -215h-1q35 -51 107 -72q58 -17 138 -17q79 0 141 19q77 23 120 72q47 63 73 153q20 70 29 169q13 130 19 182q15 159 45 375q12 93 27 180q81 6 144 13l76 7 q-78 -394 -118 -921q-9 -126 -37 -217q-35 -116 -111 -197q-87 -82 -207 -115q-96 -26 -223 -26t-215 23q-115 30 -182 101q-52 59 -77 147q-20 69 -20 161z" />
<glyph unicode="V" d="M349 1488q34 -4 112 -12q82 -8 112 -9q121 -291 301 -845l65 -195q19 37 55 111q30 61 55 109q139 275 212 414q136 258 226 407q71 5 136 11l95 7q-151 -283 -300 -621q-117 -267 -255 -614l-87 -215q-22 1 -72 1h-72h-45q-15 -1 -45 -1h-87l-19 15q-11 45 -43 178 q-68 287 -106 443q-74 306 -146 539q-37 121 -92 277z" />
<glyph unicode="W" horiz-adv-x="2175" d="M348 1486l83 -6l124 -9q73 -219 135 -499q48 -224 93 -504q110 178 220 369q11 18 76 131q30 52 77 129h177q64 -177 79 -221q21 -58 39 -111q35 -101 73 -204q20 -53 42 -111q227 622 443 1024q64 2 113 6q3 1 11 1.5t12 0.5q19 0 29 1q38 2 49 2q-171 -343 -296 -725 q-111 -333 -204 -733q-19 0 -70 1.5t-80 2.5q-30 1 -81.5 2.5t-68.5 1.5q-79 232 -182 653q-5 23 -9 41q0 2 -1.5 7.5t-2.5 8.5q-1 1 -7 25q-94 -212 -169 -370q-118 -250 -177 -366q-78 0 -162 -3q-43 -1 -84 -3t-78 -3q-15 415 -56 737q-51 390 -147 724z" />
<glyph unicode="X" horiz-adv-x="1682" d="M123 5q153 175 293 347q108 131 287 351l-5.5 11t-4.5 11l-9 21q-195 422 -344 703l19 28q29 -3 124 -10q5 -1 18 -1.5t20 -0.5q23 -1 36 -3q76 -138 155 -293q12 -24 37 -73t37 -74q24 -49 74 -151q247 370 414 595q110 8 135 10l103 7q-211 -286 -535 -785 q104 -174 215 -350q113 -179 224 -342q-44 5 -171 15q-108 7 -172 11q-68 121 -131 246q-83 161 -124 250q-179 -271 -344 -498q-8 0 -36 -1.5t-46 -2.5q-32 -2 -95 -6.5l-91 -6.5q-11 -1 -28.5 -2.5t-30.5 -3t-24 -2.5z" />
<glyph unicode="Y" horiz-adv-x="1544" d="M342 1456l19 28q72 -9 198 -19q88 -172 173 -354q41 -88 162 -360q291 472 460 717q91 5 159 12l79 7q-119 -174 -257 -402q-135 -223 -243 -411q-7 -12 -21.5 -37t-22.5 -38q-15 -25 -43 -75q-15 -161 -34 -489q-70 2 -124 2h-70h-21h-25q-9 -1 -25 -1h-22 q21 203 25 244q13 120 24 244q-220 555 -328 796q-32 70 -63 136z" />
<glyph unicode="Z" horiz-adv-x="1669" d="M190 7q17 81 28 147q18 104 25 148q432 448 475 492q209 213 482 486q-156 -6 -311 -6q-288 0 -546 23v165l21 19q248 -26 543 -26q284 0 604 30q0 -2 -1.5 -9t-2.5 -12q-1 -7 -5 -26q-8 -33 -9 -47l-14 -75q-165 -169 -251 -256t-251 -256q-114 -117 -118 -121 q-38 -39 -112.5 -114.5t-111.5 -113.5q-38 -39 -120 -121q180 5 326 5q290 0 560 -18q-2 -64 -2 -116q0 -118 4 -197q-316 29 -601 29q-286 0 -612 -30z" />
<glyph unicode="[" horiz-adv-x="958" d="M200 -262q105 906 157 1788l28 16q80 -35 179 -35q96 0 228 46l-7 -72l-11 -92q-101 -36 -218 -36h-2h-5q0 -2 -8 0q-43 -543 -116 -1344h14q116 0 210 -30q-1 -21 -4 -73t-5 -74l-5 -94q-114 42 -210 42q-102 0 -225 -42z" />
<glyph unicode="\" horiz-adv-x="1157" d="M349 1492q78 -27 169 -41l17 -16q46 -225 145 -768q24 -135 80 -437q40 -214 86 -434l-47 9q-96 26 -176 32q-41 228 -130 790q-32 201 -34 214l-72 438q-37 206 -38 213z" />
<glyph unicode="]" horiz-adv-x="961" d="M205 -262l14 125l11 107q116 30 216 30h12q17 192 30 341q37 437 59 671q23 254 31 341h-18q-122 0 -207 38q1 5 1.5 17.5t0.5 19.5q1 21 3 37l5 89q107 -47 205 -47q100 0 200 36l26 -20q-109 -943 -156 -1784q-114 41 -209 41q-99 0 -224 -42z" />
<glyph unicode="^" horiz-adv-x="1623" d="M228 919q142 107 251 202q71 63 199 185q12 11 41.5 39.5t46.5 44.5q51 50 90 83h160q17 -19 66 -74q9 -10 31.5 -36.5t34.5 -40.5q110 -128 174 -195q107 -112 228 -209q-34 2 -78 3q-88 4 -184 6q-14 0 -41 0.5t-39 1.5q-41 47 -83 106.5t-65 96t-68 111.5 q-7 11 -17 29l-15 24q-1 2 -7 11t-9 14q-3 6 -18 29q-39 -48 -95 -119q-164 -207 -260 -303q-77 0 -171 -3q-48 -1 -93 -3q-43 -1 -79 -3z" />
<glyph unicode="_" horiz-adv-x="1440" d="M-44 -462q70 64 70 108q0 33 -50 89q240 -3 262 -3q45 -1 135 -1q45 -1 127 -1q297 0 537 4l13 -34q-34 -31 -34 -75q0 -33 58 -87q-90 1 -279 3q-98 0 -145 1h-135h-135q-48 -1 -145 -1q-201 -2 -279 -3z" />
<glyph unicode="`" horiz-adv-x="862" d="M378 1627q9 -1 102 -6q74 -4 103 -4l16 -7q32 -46 47 -69q61 -98 117 -180q33 -49 94 -123q-24 1 -59 3q-44 2 -67 3q-11 0 -33 0.5t-33 1.5q-22 1 -59 1h-44q-14 30 -29 64t-29 64q-32 74 -51 114q-40 80 -75 138z" />
<glyph unicode="a" horiz-adv-x="1276" d="M127 276q0 113 44 207q52 111 149 159q132 64 312 64h113q71 0 112 1v7q0 6 1 9q0 4 2 22v14q0 83 -47 134q-77 61 -212 74q-176 0 -353 -82q0 10 1 18q0 15 1 23q0 16 1 24v17q0 44 4 83q208 64 375 64q104 0 175 -19q90 -24 151 -82q87 -102 87 -272q0 -38 -6 -108 q-29 -267 -29 -517q0 -51 2 -109q-23 3 -98 9q-48 4 -98 6l2 76v19v8v8q0 10 1 20q-73 -80 -177 -118q-91 -33 -207 -33q-159 0 -241 82q-65 71 -65 192zM296 381q1 -31 14.5 -54.5t39.5 -29.5q70 -14 137 -14q56 0 100 8q58 11 94 35q32 32 44 75.5t19 108.5l3 24 q0 2 0.5 5t1 5t0.5 3q0 7 1 14h-138h-12q-4 -1 -13 -1q-10 0 -28.5 -1t-27.5 -1q-58 -2 -112 -18q-23 -7 -51 -22h1q-64 -44 -73 -137z" />
<glyph unicode="b" horiz-adv-x="1372" d="M253 307q34 190 53.5 326t30 301.5t13 253.5t8.5 345q19 -4 67 -10q6 -1 18 -2.5t17 -1.5q10 -2 32 -4q9 0 14 -1t17 -1q5 0 31 -4q-21 -309 -47 -540q55 73 139 112t171 39h30q181 0 281 -149q87 -129 87 -326q0 -138 -28 -253q-35 -145 -116 -239q-59 -70 -142 -107 q-81 -36 -167 -36h-5h-15h-4q-2 -1 -5 -1h-9q-89 0 -170 42q-8 4 -32.5 16t-39.5 20.5t-36.5 21t-39 27t-31.5 30.5zM554 592q6 -121 51 -187q36 -36 94 -54q50 -17 104 -17q109 7 184 59l-2 -2q42 33 70 98q19 45 34 116l-1 -4v23q0 8 1 12v12q0 141 -42 224 q-56 107 -175 107q-63 0 -121 -25t-98 -74q-78 -104 -99 -288z" />
<glyph unicode="c" horiz-adv-x="1214" d="M155 469q0 139 34 260q41 150 133 240q81 76 212 115q106 32 231 32q143 0 272 -48l-17 -19l26 4q-3 -14 -10 -54q-1 -6 -4.5 -24.5t-5.5 -29.5v1l-8 -60q-142 72 -279 72q-80 0 -146 -24q-79 -28 -125 -84q-47 -52 -74 -140q-24 -72 -32 -155q0 -53 15 -100 q17 -51 51 -79h-1q43 -29 97 -40.5t133 -18.5h-1l146 -3h12q63 0 148 41q0 -10 -1.5 -42t-2.5 -51q-2 -68 -2 -94q0 -44 2 -114q-141 -53 -301 -53q-128 0 -223 29q-119 36 -185 119l1 -1q-50 60 -75 150q-20 73 -20 171z" />
<glyph unicode="d" horiz-adv-x="1334" d="M152 447q0 141 33 269q40 152 127 256l-1 -1q53 69 140 110q83 39 168 39h28q92 0 169.5 -40.5t120.5 -114.5q29 225 87 548q91 7 163 17q3 0 14 3q12 2 25 6q-146 -794 -158 -1530q-66 9 -132 14l-63 5q0 18 1 32v33v24v12q0 6 1 11q0 13 1 24q-61 -73 -147 -113 q-88 -41 -178 -41h-15h-4q-2 -1 -5 -1h-10q-90 0 -166.5 37t-122.5 107q-76 117 -76 294zM297 578q2 -52 15 -100q13 -50 46 -85h-1q33 -32 85 -43q41 -9 100 -9q45 2 71.5 4.5t64 13t65.5 28.5l-1 -1q51 37 73 129q13 55 13 139q0 81 -16 155q-16 76 -69 122 q-51 45 -122 45h-24q-93 0 -161 -65q-58 -55 -96 -153q-31 -80 -43 -180z" />
<glyph unicode="e" horiz-adv-x="1310" d="M152 472q0 132 38 256q45 147 129 238q74 75 185 114q96 32 209 34q99 -5 170 -26q93 -27 148 -82q49 -54 70 -136q15 -63 15 -156v-10q-1 -4 -1 -12v-22l-32 13l33 -14q-1 -7 -1 -18q0 -3 -0.5 -8.5t-1.5 -8.5v1l-5 -40q-161 -3 -497 -3q-46 0 -69 1h-70h-120v-5 q-2 -38 -2 -51q0 -63 14 -111q17 -58 56 -86v1q103 -65 284 -65h18q105 0 161 8q90 11 173 51v-32q-2 -50 -2 -76v-33q0 -87 3 -124q-198 -67 -409 -67q-120 9 -211 41q-115 38 -184 106q-52 61 -78 151q-23 79 -23 171zM383 761q43 -1 72 -1h24h96q193 0 383 3 q-11 105 -77 171q-71 69 -175 69q-146 0 -232 -82q-77 -68 -91 -160zM958 763q2 -14 2 -20l19 20h-21z" />
<glyph unicode="f" horiz-adv-x="950" d="M255 915l5 71q2 14 3 30q1 6 1 17t1 16q1 13 2.5 36t1.5 27q62 -8 152 -15q3 13 9 63q14 81 34 133q28 73 78 116q99 71 223 79q10 -1 31 -1h31q47 0 86 4l21 -22q-11 -69 -20 -146q-38 -2 -73 -2q-28 0 -90 2q-61 -6 -89 -29q-25 -34 -36 -121v2v-40q-1 -16 0 -40 q128 2 272 15q-1 -7 -5 -45q-7 -60 -11 -106q-4 -38 -5 -45q-133 -8 -264 -9q-30 -444 -46 -869q-40 2 -79 2q-81 0 -201 -12q49 307 117 881q-51 2 -75 4q-15 1 -40.5 2.5t-33.5 1.5z" />
<glyph unicode="g" horiz-adv-x="1296" d="M162 499q0 131 28 242q33 138 111 227q59 67 146 103q81 34 171 34h30q92 0 175 -44q84 -45 131 -116q2 11 6 21q4 14 5 20l27 107l65 5h-1l135 17q-90 -448 -143 -962l-5 -36q-17 -146 -40 -225q-36 -128 -110 -208q-78 -77 -197 -103q-85 -20 -216 -20q-174 0 -317 40 q8 48 24 168q8 63 11 88q2 17 6 47t4 32q136 -76 296 -76q76 2 133 20q73 24 114 70q80 81 107 175q0 10 2 32q-129 -136 -329 -136q-84 0 -162 39q-80 40 -124 108q-83 125 -83 331zM283 575q0 -10 1 -15t1 -15q2 -61 11 -103q12 -54 40 -87q36 -25 88 -31q38 -6 98 -6 q120 0 214 38q46 30 72 99q19 50 26 122v-1q4 33 4 74q0 150 -71 229q-67 73 -185 73q-59 0 -115.5 -23.5t-92.5 -67.5q-41 -53 -65 -137q-19 -67 -26 -149z" />
<glyph unicode="h" horiz-adv-x="1419" d="M184 6q144 742 173 1522q24 -4 46 -5q17 -2 53 -6q72 -8 99 -9q-8 -99 -22 -273q-13 -138 -29 -274q139 159 320 159h26q85 0 153 -31q76 -35 110 -104q50 -99 50 -235q0 -40 -3 -79q-12 -208 -12 -413q0 -40 1 -61q0 -43 1 -65q0 -14 3 -125q-63 8 -118 13q-42 4 -62 6 q-47 4 -56 5q16 249 55 639q3 19 3 61q0 91 -27 150q-27 44 -71 66.5t-94 22.5q-58 0 -115 -24.5t-96 -68.5q-86 -99 -98 -247q-2 -29 -6 -85t-6 -85q-25 -320 -38 -430q-7 0 -55 -5q-11 -1 -32 -3t-32 -3q-55 -5 -121 -13z" />
<glyph unicode="i" horiz-adv-x="677" d="M208 -14q19 168 58 551q29 280 53 550l26 16q29 -9 55 -9q30 0 91 18q-21 -251 -44 -561q-27 -370 -40 -563q-56 50 -91 50q-40 0 -108 -52zM327 1295l13 110l12 101l32 12q23 -17 53 -17q35 0 96 42q-3 -43 -4 -59q0 -6 -0.5 -17t-1.5 -17q-1 -11 -1 -26 q0 -9 -1.5 -31.5t-2.5 -35.5t-2.5 -35.5t-1.5 -31.5q-54 -28 -99 -28q-48 0 -92 33z" />
<glyph unicode="j" horiz-adv-x="724" d="M-34 -411l16 115q18 122 25 179l59 12q111 18 153 57q22 27 36 79q7 26 16 88q0 4 1 7q1 2 1 5q5 32 13.5 95t12.5 94q16 126 25 190q11 79 37 278q12 91 38 277l19 16q64 1 166 15q-82 -613 -134 -1092q-10 -96 -26 -148q-27 -84 -79 -134q-46 -40 -114 -66 q-37 -14 -124 -31q-17 -4 -28 -5q-45 -9 -67 -16q-27 -8 -46 -15zM446 1256l7 47q10 60 14 90q9 64 13 89l18 16q90 13 165 38q-1 -15 -3 -38q0 -8 -2 -22.5t-2 -21.5q-4 -42 -6 -83q-1 -15 -3 -41t-3 -41q-78 -21 -198 -33z" />
<glyph unicode="k" horiz-adv-x="1477" d="M181 7q148 757 172 1500l22 18q80 -11 176 -16q-13 -254 -24 -402q-15 -193 -37 -402q120 130 181 196q21 22 57.5 61.5t67 72t57.5 60.5q32 0 122 2q11 0 33 0.5t33 1.5q40 0 56 1q-16 -18 -46.5 -52.5t-58 -65.5t-51.5 -58q-13 -14 -39.5 -44.5t-40.5 -46.5 q-5 -6 -33 -38l-42 -48l-130 -147l36 -37q46 -50 139.5 -149t122.5 -130q39 -42 256 -281q-216 29 -394 33q-46 63 -90 120q-102 136 -167 227q-42 59 -87 123q-6 -118 -10 -172l-12 -174q0 -5 -1.5 -27t-2.5 -37q-5 -57 -5 -65q-13 -1 -60 -5l-69 -6q-56 -5 -131 -13z" />
<glyph unicode="l" horiz-adv-x="797" d="M200 -1q88 688 152 1506l27 15q42 -19 108 -19q12 0 19 1q2 0 34 2q-45 -471 -109 -1236q52 -4 114 -25q-3 -33 -9 -121q-1 -11 -2.5 -33t-1.5 -32q-2 -31 -3 -57q-87 38 -157 38q-66 0 -172 -39z" />
<glyph unicode="m" horiz-adv-x="2040" d="M126 8q146 466 146 934q0 102 -4 167l99 -5l98 -4q-5 -60 -11 -135q53 72 133 112.5t167 40.5q127 0 217 -50q102 -57 135 -163q65 98 155 155q97 63 245 63q83 0 147 -40q70 -44 92 -119v1q21 -73 21 -164q0 -45 -8 -131q-15 -148 -15 -294q0 -190 31 -367q-33 2 -62 3 q-11 0 -35 1.5t-36 2.5q-24 1 -70 3q-11 0 -32 0.5t-31 1.5v48q0 247 64 626l3 31q1 8 2 24.5t2 25.5q2 34 2 48q0 80 -29.5 117t-92.5 37q-150 0 -231 -104q-81 -96 -93 -249q-33 -279 -54 -595h-269q69 334 130 672v-2q3 30 3 61q0 90 -31 147l1 -2q-28 44 -77 64 q-41 15 -95 15q-123 0 -206 -117q-72 -104 -79 -240q-20 -357 -73 -609q-9 -1 -29.5 -1.5t-30.5 -0.5q-72 -2 -138 -6q-32 -1 -61 -3zM436 940l1 -1v1h-1z" />
<glyph unicode="n" horiz-adv-x="1406" d="M141 7q121 536 129 1113q23 -3 98 -9q8 -1 25.5 -2t26.5 -2q26 -1 45 -3l-2 -88v-11q-1 -1 -1 -3q-1 -1 -1 -4v-11q185 129 368 129q83 0 154 -31q76 -34 112 -103q45 -100 45 -239q0 -25 -2 -73q-13 -190 -13 -349q0 -145 15 -313q-23 2 -73 6t-63 5q-97 6 -138 7 q20 278 76 649v10q0 7 1 10v-1q4 31 4 68q0 72 -22 122v-1q-20 37 -62 57q-34 15 -81 15q-72 0 -128 -16q-71 -22 -113 -67q-76 -82 -89 -237v1q-11 -304 -43 -610q-8 0 -29 -1.5t-34 -2.5q-26 -2 -76 -5t-66 -4q-34 -3 -63 -6z" />
<glyph unicode="o" horiz-adv-x="1268" d="M156 455q0 145 30 265q39 158 124 253q71 70 176 107q96 34 198 34q111 0 194 -30q98 -36 154 -113q83 -115 83 -306q0 -142 -31 -266q-38 -153 -124 -254q-69 -75 -175 -110q-96 -32 -201 -32q-107 0 -192 31q-103 37 -153 112v-1q-83 114 -83 310zM356 513 q0 -110 53 -151l-1 1q69 -45 205 -45q132 0 212 46h-1q59 41 82 140q13 60 13 150q0 132 -49 215q-28 47 -81 72t-116 26q-64 0 -122 -25t-96 -74q-53 -68 -79 -172q-20 -76 -20 -183z" />
<glyph unicode="p" horiz-adv-x="1314" d="M94 -404q143 735 174 1511q30 -3 98 -9q59 -7 98 -8l-15 -99l-5 -29q56 71 147 109q84 36 176 36h29q81 0 163 -40q80 -39 128 -104q76 -116 76 -291q0 -146 -33 -272q-40 -153 -127 -254h1q-56 -69 -140 -110q-82 -40 -170 -40h-26q-90 0 -168 38q-81 39 -122 115 q-20 -155 -83 -533q-5 0 -21.5 -1.5t-25.5 -2.5q-33 -4 -53 -5q-29 -3 -54 -6q-40 -5 -47 -5zM481 514q0 -120 59 -167l-1 1q79 -52 200 -52q125 0 203 52l-2 -1q45 38 66 103q16 48 25 121q0 5 1 8q1 2 1 7v2q5 52 5 90q0 126 -54 206q-61 90 -175 90q-149 0 -230 -105 q-56 -68 -79 -171q-19 -84 -19 -184z" />
<glyph unicode="q" horiz-adv-x="1370" d="M159 484q0 132 30 247q37 142 112 233q60 68 143 106q81 37 166 37h4h34q87 0 172 -45q82 -45 131 -117l23 90l16 59q25 1 100 9q36 4 53 6q22 1 46 5q-152 -773 -171 -1511h-5q-7 0 -10 1h-9h-6q-62 9 -166 15q23 351 42 528q-54 -70 -139 -111q-83 -40 -170 -40h-28 q-88 0 -164.5 39.5t-120.5 110.5q-83 126 -83 338zM290 510q0 -117 54 -165l-2 1q63 -46 195 -46q127 0 211 47h-2q64 44 87 152q15 68 15 161q0 124 -49 207q-61 100 -207 100h-6q-55 0 -110 -25q-55 -27 -90 -72q-45 -58 -68 -140q-18 -63 -25 -152v-10q-1 -4 -1 -11 q-2 -32 -2 -47z" />
<glyph unicode="r" horiz-adv-x="904" d="M116 6q106 517 149 1090q21 -2 130 -11q12 0 23 -1t22 -1l-6 -100q11 7 59 33l46 26q57 34 134 52q68 16 136 16h51q-2 -12 -6.5 -42.5t-7.5 -48.5q-12 -80 -13 -91l-26 -16q-22 9 -55 9q-85 0 -146 -19q-81 -27 -122 -84q-66 -92 -83 -261v1q-20 -377 -33 -529 q-108 -4 -252 -23z" />
<glyph unicode="s" horiz-adv-x="1165" d="M119 52q4 23 11.5 73t10.5 68q14 100 19 140q172 -92 341 -92h23q5 -1 13 -1h11q77 0 131 27q69 34 74 99q-2 2 -5 9q-3 5 -9 16.5t-9 17.5q-12 22 -19 31q-31 25 -88 42q-24 7 -98 24l-38 9q-73 17 -116 35q-69 27 -105 62q-58 57 -58 177q0 90 38 163q42 81 125 115 q117 47 267 47q208 0 339 -42l-16 -17l25 4l-8 -54q-2 -11 -9 -52q-1 -5 -2 -14.5t-2 -13.5q-2 -7 -4 -24q-146 67 -329 67q-99 0 -166 -34q-85 -43 -85 -133q0 -75 91 -117q57 -27 157 -45l19 -5q86 -22 132 -39q72 -29 115 -71q66 -63 66 -183q0 -81 -29 -146 q-36 -76 -100 -116q-72 -45 -171 -63q-71 -13 -178 -13q-170 0 -364 49z" />
<glyph unicode="t" horiz-adv-x="1122" d="M260 954q1 6 1.5 21.5t0.5 23.5q2 27 4 45v-1l3 69l44 -6q6 -1 19.5 -2.5t19.5 -2.5q3 0 10.5 -1t14.5 -2t15 -1q10 103 13 133q8 70 12 130q93 -9 186 -9l19 -21q-3 -24 -7 -67q-6 -46 -9 -68v1l-12 -104h17q53 0 111 3q10 1 29 1t29 1q28 1 54 3l-6 -69q-9 -68 -12 -86 q-130 -6 -213 -6h-23q-13 -116 -15 -136q-2 -26 -8 -77t-8 -76q-3 -26 -8.5 -77t-7.5 -77v-11q-1 -3 -1 -10q-2 -32 -2 -45q0 -63 21 -90l-2 3q14 -14 39.5 -22.5t41.5 -10t51 -3.5q112 -6 184 -15q-2 -37 -3 -68q0 -12 -1 -37t-1 -38q-4 -102 -4 -143q-24 4 -82 12 q-13 1 -44 5q-8 1 -21.5 2.5t-18.5 1.5l-26 3l-34 3q-97 9 -132 18q-75 19 -119 56q-62 62 -62 187q0 44 5 91q3 25 8.5 72.5t7.5 69.5q17 144 30 276q5 49 13 141q-105 8 -121 10z" />
<glyph unicode="u" horiz-adv-x="1353" d="M234 346q0 47 5 102q31 290 31 557v22q-1 7 -1 21v66q3 -1 10 -1.5t11 -0.5q16 -2 25 -3q4 -1 12.5 -2t13.5 -1q12 -2 21 -3l73 -6q-5 -250 -23 -494v-14v-9q-1 -3 -1 -9q0 -106 32 -173l-1 1q45 -80 147 -80q140 0 220 85v-1q79 88 102 238v-1q18 170 67 456q48 1 116 8 q82 6 115 10q-121 -559 -122 -1104q-19 2 -45 3q-62 6 -106 8q-8 0 -23 0.5t-22 1.5q9 119 11 137q-64 -74 -150.5 -116.5t-178.5 -42.5h-26q-88 0 -157 30q-80 33 -116 102q-40 93 -40 213z" />
<glyph unicode="v" horiz-adv-x="1389" d="M269 1113l71 -7q98 -9 135 -10q95 -227 237 -656q1 -3 2.5 -8t3 -9t2.5 -7q1 -4 3 -10t3 -10q6 -21 17 -50l58 114q212 422 341 636q37 3 50 4q9 0 28.5 1.5t29.5 2.5q80 6 108 9q-122 -214 -233 -457q-91 -196 -193 -444l-77 -183q-17 1 -59 1h-59h-70h-44 q-17 -1 -43 -1q-15 54 -36 136q-54 212 -85 335q-54 211 -116 403q-42 125 -74 210z" />
<glyph unicode="w" horiz-adv-x="1773" d="M263 1085l20 25q66 -5 167 -11q103 -302 173 -721q38 67 69 116q12 21 35 60.5t32 53.5q28 49 40 69q13 21 40 68h150q40 0 96 2q51 -129 74 -185q37 -94 77 -185q157 449 302 723l65 4q64 4 70 4t18.5 1t19.5 2q5 0 15.5 0.5t15.5 1.5q-134 -252 -234 -543 q-88 -251 -155 -548q-47 2 -86 3q-15 0 -43 0.5t-42 1.5q-28 0 -45 1q-18 1 -46 1q-40 103 -80 225q-36 105 -72 228q-133 -268 -237 -454q-9 0 -138 -3h-27q-42 -2 -63 -2h-26q-27 329 -62 545q-46 284 -123 517z" />
<glyph unicode="x" horiz-adv-x="1519" d="M113 6q175 181 252 264q168 182 244 269q-107 190 -166 288q-92 154 -175 282q4 0 21.5 -1.5t28.5 -2.5q9 0 28.5 -1.5t29.5 -2.5q48 -5 107 -7q122 -187 255 -422q175 217 359 424q123 7 165 11l16 -32q-146 -175 -410 -532v1q-3 -5 -6 -8q-4 -4 -7 -9q74 -103 197 -264 q100 -132 201 -257q-43 4 -157 12q-114 6 -157 7q-40 61 -110 177q-43 70 -104 179q-131 -169 -292 -356q-64 -1 -159 -8q-58 -4 -86 -5q-42 -3 -75 -6z" />
<glyph unicode="y" horiz-adv-x="1391" d="M198 -418q4 21 14 77l11 77q1 8 4 26l4 24q8 49 8 51q12 1 37 3q6 0 18.5 0.5t17.5 1.5q41 2 61 4t50.5 11t52.5 25l-1 -1q34 29 95 93q33 60 65 111l19 33l-27 73q-134 358 -175 465q-102 267 -183 459q48 -7 104 -13q76 -10 104 -11q146 -267 164 -300 q104 -198 157 -303q207 377 345 604q28 1 108 11q40 4 59 6q30 3 50 6q-173 -317 -452 -921l-122 -263q-46 -88 -83 -142q-56 -79 -115 -124q-57 -40 -137 -57q-48 -10 -146 -16q-4 -1 -12.5 -1.5t-12.5 -0.5q-21 -1 -58 -5q-14 -1 -24 -3z" />
<glyph unicode="z" horiz-adv-x="1281" d="M121 7q9 40 27 138q3 16 7.5 45.5t8.5 52t7 40.5q154 150 347 333q29 27 86.5 81t85.5 80q77 72 179 167q-101 -4 -229 -4q-202 0 -377 15v131l22 19q193 -17 377 -17q216 0 462 25q-2 -10 -17 -90q-5 -25 -9 -48q-8 -41 -8 -43q-41 -42 -125 -128q-85 -89 -124 -129 q-19 -19 -51.5 -53.5t-46.5 -48.5q-102 -109 -184 -192q-31 -32 -100 -101q27 1 80 1h80q193 0 396 -13q-2 -56 -2 -102q0 -67 2 -157q-225 21 -434 21q-204 0 -460 -23z" />
<glyph unicode="{" horiz-adv-x="1179" d="M165 536q0 11 1 18q1 4 1.5 11t0.5 11q1 9 2.5 23t1.5 17l8 78h28q2 0 6.5 -0.5t6.5 -1.5q3 -1 9 -1h8q116 0 184 50q32 37 46 86q12 43 19 97q4 48 11 111l12 112q16 109 29 149q28 83 83 129q97 58 284 87q13 1 31 6q24 4 37 7q37 6 67 13q-9 -45 -15 -81q-2 -7 -4 -22 t-4 -23q-5 -23 -6 -37q-30 -8 -85 -18q-40 -6 -62.5 -10.5t-54.5 -16.5t-54 -29l2 3q-17 -18 -28 -46.5t-14.5 -47.5t-9.5 -56l-3 -18v1q-11 -82 -14 -116q-6 -47 -13 -115q-16 -144 -65 -218q-44 -56 -126 -82q79 -31 104 -89t25 -164v-36l-12 -116q-1 -21 -5 -58t-5 -58 q0 -90 29 -128q35 -35 136 -50l22 -4q10 -2 16 -2q2 0 6.5 -0.5t6.5 -1.5q12 -4 24 -4l20 -21q-1 -13 -1 -39q-1 -7 -2 -20t-1 -20q-3 -51 -3 -62q0 -5 -0.5 -16t-1.5 -16q-1 -11 -1 -28l-91 14q-110 18 -155 31q-88 25 -140 68q-61 72 -61 213q0 60 13 164q13 102 13 161 q0 108 -31 158l1 -1q-23 29 -70 42q-37 10 -90 12h-6q-5 0 -7 1h-8h-45z" />
<glyph unicode="|" horiz-adv-x="657" d="M88 -482q46 304 75 511q38 264 70 510h41h48q32 0 48 1h41q-41 -341 -109 -951l-23 -17q-20 4 -41 4q-61 0 -150 -58zM240 621l58 448q23 192 57 451q9 -2 19.5 -4t11.5 -2q5 -1 13 -1q60 0 149 62q-17 -116 -33 -232q-5 -37 -16.5 -119t-17.5 -125q-12 -82 -34 -244 q-6 -48 -17.5 -133.5t-13.5 -99.5q-35 -3 -85 -3h-21q-18 0 -50 2h-20z" />
<glyph unicode="}" horiz-adv-x="1195" d="M197 -321q1 17 6 39q3 22 6 48q4 32 7 47l5 40l55 8q73 9 103 17q58 14 91 41l-2 -1q42 46 56 160q0 3 1 4v5l2 19q6 72 9 107q16 164 27 213q12 52 44 101q43 57 136 82q-90 27 -121 89v-1q-27 50 -27 141q0 81 12 189q13 117 13 183t-26 106q-28 24 -80 39 q-33 9 -95 20l-64 12l2 77l4 85q31 -8 61 -13q6 -1 17.5 -3t16.5 -3l30 -5q101 -18 140 -30q75 -22 128 -64q59 -64 59 -194q0 -51 -4 -88l-19 -225q-3 -28 -3 -57q0 -82 33 -128q26 -26 75 -38q33 -8 89 -8q7 0 10 1h9h12q22 -2 37 -2l-11 -156h-51q-68 0 -101 -7 q-58 -12 -91 -44h1q-32 -35 -47 -90q-12 -43 -19 -101q-1 -25 -5 -75q-3 -25 -7 -75l-5 -72q-10 -101 -25 -147q-26 -86 -79 -132q-55 -38 -125 -58q-43 -13 -129 -27q-13 -3 -41 -7q-17 -2 -41 -8l-39 -6h1z" />
<glyph unicode="~" horiz-adv-x="1526" d="M131 466q51 85 57 186q83 70 162 105q91 41 180 41q121 0 263 -59l7 -4q17 -6 23 -9q138 -57 221 -57q68 0 152 36q47 20 144 78q21 14 37 22q30 16 36 20l-7 -27l23 7q-40 -65 -50 -149l-63 -47q-85 -68 -140 -98q-80 -46 -158 -46q-39 1 -81 13t-62 21t-71 33l-59 29 q-128 76 -221 79q-79 -4 -160 -62v1q-145 -97 -209 -135z" />
<glyph unicode="&#xa1;" horiz-adv-x="749" d="M206 -4q24 193 40 331q25 215 37 331l15 112q8 61 18 121q3 24 8.5 66t7.5 55q58 -9 96 -9q48 0 111 10q0 -12 -1.5 -47.5t-2.5 -56.5q-1 -22 -2.5 -58t-1.5 -47q-2 -99 -5 -147q-23 -329 -39 -630l-29 -15q-46 25 -107 25q-62 0 -145 -41zM327 1198l10 138q1 13 3 35 q1 13 3 41q5 70 6 77q67 -34 121 -34q59 0 137 39l-30 -284l-14 -16q-62 -19 -116 -19q-53 0 -120 23z" />
<glyph unicode="&#xa2;" horiz-adv-x="1204" d="M154 466q0 139 33 255q40 146 131 235h-1q65 69 170 111q83 32 195 44q4 47 13 120l18 152h57q19 0 64 3q-6 -46 -18 -136q-11 -86 -17 -137q143 -7 243 -53l-16 -16l23 4l-9 -61l-11 -88q-132 71 -247 78q-25 -214 -42 -371q-25 -237 -38 -373q120 10 262 72 q-1 -5 -1.5 -15t-0.5 -15q-1 -30 -5 -73q-1 -16 -3 -31q-8 -76 -9 -130q-126 -43 -265 -51l-10 -116q-1 -7 -6 -76q-2 -28 -3 -41q-1 -19 -3 -36q-9 0 -14 1q-3 1 -9.5 1.5t-9.5 0.5q-13 0 -19 1t-15 1q-28 0 -53 4l15 154q4 44 5 58q1 25 6 58q-96 13 -181 51 q-97 43 -146 113q-83 110 -83 302zM354 513q0 -113 65 -186q61 -69 169 -86q42 436 76 730q-148 -16 -236 -169q-74 -128 -74 -289zM587 231l5 8l7 1q-2 0 -3 1h-2l4 5l-9 -5h-1q0 -1 -1 -2v-1v-7z" />
<glyph unicode="&#xa3;" horiz-adv-x="1305" d="M46 7q0 2 4 20t6 29q2 13 11 55q14 72 19 103l6 30q79 5 222 11q2 14 6.5 47.5t7.5 51.5q9 68 13 95q6 47 12 96q2 21 11 100q-72 0 -182 2l17 139q60 -2 91 -3q15 -1 45 -1t45 -1l10 99q2 19 6 59q6 77 21 151q20 106 65 185q48 88 140 135q84 43 190 58q50 6 93 6 q125 0 259 -40l-15 -18l25 4l-7 -38q-5 -28 -7 -34q-14 -74 -15 -79q-3 -19 -6 -36q-138 69 -242 69q-55 0 -111 -18q-63 -22 -99 -58q-36 -47 -57 -124q-15 -55 -24 -137q-3 -18 -10 -79q-3 -26 -9 -80l-4 -28q34 0 50 -1t48 -1q80 -2 130 -2q22 0 65.5 -0.5t64.5 -1.5 l-9 -70l-6 -66l-197 3l-160 4l-46 -388q273 -2 522 -28q-6 -83 -8 -172v-31q-1 -14 -1 -31q-276 36 -553 36q-204 0 -437 -22z" />
<glyph unicode="&#xa4;" horiz-adv-x="1496" d="M185 214q71 62 161 149l64 60q-44 103 -44 192q0 130 84 250l-83 92l-106 117q27 24 34 31q6 5 16.5 15.5t15.5 14.5l57 57l91 -97l102 -110q102 66 224 66q116 0 217 -65l51 47l181 163l102 -121l-94 -85q-11 -10 -33 -30.5t-33 -30.5q-44 -42 -66 -62q20 -60 28 -92 q13 -54 13 -95q0 -139 -86 -258q47 -53 193 -209q-42 -36 -61 -58l-60 -59q-33 35 -99 103t-98 103q-112 -66 -222 -66q-107 0 -218 64l-78 -71l-152 -136q-1 1 -6 7t-8 10q-13 13 -33 39q-2 3 -7 8t-7 8zM529 616q0 -95 64 -154q62 -59 154 -59q97 0 174 72q75 70 81 171v1 q1 4 1 13v13q0 92 -63 152q-62 57 -154 57q-105 0 -182 -79q-75 -77 -75 -187z" />
<glyph unicode="&#xa5;" horiz-adv-x="1508" d="M349 416q0 4 5 41l12 96q2 26 3 40l114 2q133 3 268 3l3 38l-37 65q-9 16 -20 35q-9 13 -21 35h-154q-56 0 -154 2q2 13 3 36q4 40 6 69q1 21 3 34q140 -5 235 -5q-40 93 -130 293q-59 129 -136 289q49 -7 113 -13q82 -10 113 -11q110 -230 152 -324q82 -185 144 -330 q211 354 411 655q62 4 147 13l87 8q-150 -216 -380 -580q62 2 88 2l146 3q0 -11 -1 -18q-1 -3 -1 -10.5t-1 -11.5q-1 -11 -4 -41q-1 -9 -3 -28q0 -5 -0.5 -15t-1.5 -14l-306 -3l-49 -80q-3 -5 -9 -14.5t-9 -13.5q-8 -10 -19 -28q0 -3 -0.5 -7.5t-1 -7t-0.5 -3.5t-0.5 -4 t-1 -7.5t-0.5 -7.5q182 0 380 -5q-1 -16 -3 -44q-1 -27 -3 -45l-3 -69l-21 -18q-195 8 -360 9q-7 -181 -7 -391q-66 2 -119 2h-34q-11 -1 -34 -1h-91q5 32 16.5 97t17.5 98l33 195q-177 -1 -385 -10z" />
<glyph unicode="&#xa6;" horiz-adv-x="715" d="M184 -363q12 120 38 394q26 296 35 395q17 1 49 3q19 1 47 1q32 0 62 -3l16 -22q-8 -96 -15 -187q-2 -31 -7.5 -97t-8.5 -100q-5 -67 -15 -197q-8 -104 -15 -188q-51 64 -86 64q-37 0 -100 -63zM279 672q0 4 6.5 77.5t9.5 113.5q5 67 17 205q23 292 31 395q27 -40 47 -56 q21 -18 36 -18q39 0 64 28l34 -15q-39 -385 -69 -735q-56 -9 -93 -9q-38 0 -83 14z" />
<glyph unicode="&#xa7;" horiz-adv-x="1124" d="M182 -112l9 79q8 59 10 74q4 40 9 73q173 -60 278 -60q79 0 127 14q37 11 56 36t20 56q-11 60 -81 120q-36 31 -124 82l-36 21q-125 75 -171 122q-81 83 -81 190q0 91 51 172q49 78 132 122q-89 89 -89 204q0 65 27 122q28 59 85 94h-1q59 40 135 56q58 12 143 12 q146 0 282 -37l-13 -15l22 2q-1 -5 -2.5 -15t-1.5 -14q-1 -6 -6 -54q0 -4 -1.5 -14t-2.5 -15l-5 -30t-2.5 -14.5t-1.5 -10.5q-166 60 -283 60q-66 0 -119 -30q-62 -36 -63 -96q11 -63 82 -126q51 -46 123 -84l37 -22q121 -74 169 -123q82 -84 82 -187q0 -94 -52 -171 q-48 -72 -133 -123q90 -92 90 -201q0 -70 -25 -129q-27 -66 -87 -105l1 1q-52 -40 -137 -59q-62 -14 -148 -14q-112 0 -304 37zM371 757q0 -70 85 -145q47 -42 171 -114q18 -12 31 -18q10 -5 30 -17q48 33 82 72q38 46 38 94q0 79 -92 157q-43 37 -186 121l-41 22 q-53 -38 -81 -74q-37 -49 -37 -98zM489 929l1 1h-1v-1z" />
<glyph unicode="&#xa8;" horiz-adv-x="975" d="M325 1323q42 76 42 140q0 35 -9 68l19 25q64 -2 104 -2q18 0 52.5 -0.5t51.5 -1.5q2 -24 2 -57q0 -80 -18 -167q-33 0 -121 -2q-23 -1 -66 -1q-10 0 -29 -0.5t-28 -1.5zM747 1392q0 67 19 145l17 15q64 2 97 2l130 2q-43 -84 -43 -139q0 -36 22 -93l-124 2q-18 0 -114 3 q-4 29 -4 63z" />
<glyph unicode="&#xa9;" horiz-adv-x="1687" d="M194 661q0 166 54 313q60 164 179 273v-1q101 101 242 153q133 48 277 48q139 0 266 -49q129 -51 218 -152q144 -168 144 -422q0 -162 -55 -314q-58 -161 -178 -273v1q-103 -103 -246 -154q-132 -47 -280 -47q-136 0 -261 52q-132 55 -215 148q-145 174 -145 424z M306 681q0 -209 128 -331q87 -57 192 -87q113 -34 212 -34q236 0 428 123l-1 -1q100 72 152 211q43 114 43 252q0 214 -121 350q-142 165 -401 165q-121 0 -233 -42t-199 -126q-97 -89 -150 -221q-50 -127 -50 -259zM466 685q0 110 33 199q38 106 112 173q127 114 340 114 q128 0 246 -48l-15 -18l24 4q-3 -18 -6 -52q-1 -8 -2 -19t-2 -19t-1 -14q-134 62 -250 62q-133 0 -212 -91q-45 -53 -70 -121t-25 -134q0 -105 84 -168q76 -57 187 -57q97 0 244 65l-9 -111q-4 -34 -6 -89q-129 -52 -273 -52q-201 0 -308 115q-91 101 -91 261z" />
<glyph unicode="&#xaa;" horiz-adv-x="1070" d="M213 462q2 8 5.5 30t5.5 32l6 33q1 6 2.5 16t1.5 12l18 17q171 13 316 13q153 0 334 -17l-2 -30v-16v-30v-29v-34q-183 22 -346 22q-154 0 -341 -19zM253 904q0 64 27 125q31 71 82 105q114 63 266 63q104 0 159 3q1 3 1 10v9q0 79 -69 109q-47 19 -122 21 q-99 -1 -264 -58q0 13 1 22q0 17 1 26q0 17 1 26v21q0 14 1 25v23q139 43 288 43q162 0 243 -62q73 -72 73 -198q0 -35 -5 -75q-25 -231 -35 -441q-3 0 -11.5 1t-16 2t-15.5 1q-7 0 -22 0.5t-21 1.5l-71 3l7 86q-109 -103 -262 -103q-103 0 -165 49q-71 55 -71 162zM403 988 q0 -46 40 -76q39 -29 88 -29q96 0 165 66q29 34 49 80t24 89q0 3 1 4v3v4v1q0 1 1 2h-19q-50 -2 -84 -2h-10q-3 -1 -10 -1q-122 -7 -162 -22q-83 -31 -83 -119z" />
<glyph unicode="&#xab;" horiz-adv-x="1218" d="M144 524q2 4 6 14l6 15l6 15t6 14q1 2 3 5t2 4l4 8q3 9 6 16q5 11 12 33q102 82 251 197q174 134 253 193l-30 -210q-158 -121 -301 -234q112 -120 242 -257l-33 -108l-37 -129q-87 88 -201 209q-83 88 -195 215zM539 509q3 10 14 33q3 8 14 32l25 57q54 41 139 108 l138 108l212 166l30 -21q-9 -31 -36 -167l-167 -133q-11 -8 -34.5 -27t-36.5 -28q-35 -27 -72 -57l88 -95l158 -169q-20 -85 -46 -246q-68 68 -104 105q-16 16 -34.5 35t-41 42t-34.5 36q-120 123 -212 221z" />
<glyph unicode="&#xac;" horiz-adv-x="1674" d="M212 846l20 24q285 -11 614 -11q318 0 643 11q-60 -183 -60 -334q0 -120 39 -247l-97 2q-37 1 -84 3q-59 0 -84 1v16q-1 9 -1 17v14q0 152 52 339q-521 -17 -1022 -17q-5 113 -20 182z" />
<glyph unicode="&#xad;" horiz-adv-x="876" d="M139 475q36 67 36 106q0 24 -9 48l19 26q124 -3 253 -3q43 0 68 1q50 0 75 1q58 0 144 2q-39 -67 -39 -106q0 -24 23 -75q-41 1 -141 3q-50 0 -74 1h-68h-69q-25 -1 -74 -1q-107 -2 -144 -3z" />
<glyph unicode="&#xae;" horiz-adv-x="1687" d="M194 661q0 166 54 313q60 164 179 273v-1q101 101 242 153q133 48 277 48q139 0 266 -49q129 -51 218 -152q144 -168 144 -422q0 -162 -55 -314q-58 -161 -178 -273v1q-103 -103 -246 -154q-132 -47 -280 -47q-136 0 -261 52q-132 55 -215 148q-145 174 -145 424z M311 733q0 -220 159 -358q149 -131 373 -131q116 0 226.5 40t197.5 117l-1 -1q94 91 146 208.5t52 242.5q0 202 -123 325q-146 153 -403 153t-431 -155q-96 -80 -147 -202q-49 -113 -49 -239zM557 352q28 271 39 403q17 199 30 402q85 -3 275 -3q149 -2 227 -45 q87 -54 87 -161q0 -85 -54 -149q-53 -64 -134 -84q7 -6 14 -12.5t14 -15.5t11.5 -15t11.5 -17t10 -16l10.5 -17.5t9.5 -16.5h-1l14 -30l120 -224h-22h-29q-19 0 -28 1h-23q-41 0 -81 2q-21 39 -30 56q-7 11 -18 32.5t-11 22.5l-45 88q-2 5 -6 11q-4 4 -6 9q-27 47 -46 71 q-30 37 -58 42h-11h-8h-8h-12q-14 -139 -15 -149l-16 -184h-42h-38q-25 0 -37 -1h-94zM813 847h100q93 0 137 29q48 32 48 112q0 59 -53 82q-32 13 -98 15h-10h-30q-11 -1 -31 -1h-43q-4 -51 -7 -80q-4 -40 -6 -81z" />
<glyph unicode="&#xaf;" horiz-adv-x="939" d="M320 1352q43 58 43 92q0 23 -10 42l17 29q140 -3 281 -3q49 0 77 1q55 0 84 1q64 0 160 2q-44 -61 -44 -94q0 -26 31 -70q-49 0 -76 1q-27 0 -83 0.5t-83 0.5h-76h-76q-28 0 -84.5 -0.5t-83.5 -0.5q-28 -1 -77 -1z" />
<glyph unicode="&#xb0;" horiz-adv-x="907" d="M287 1154q0 72 23 137q27 75 77 121v-1q88 88 228 88q120 0 198 -76q77 -79 77 -203q0 -71 -25 -138.5t-76 -115.5v1q-90 -84 -226 -84q-141 0 -215 84q-61 76 -61 187zM429 1238q0 -63 45 -100q42 -35 105 -37q74 0 125 48q54 51 54 123q0 59 -44 96q-43 35 -104 35 q-71 0 -125 -46q-56 -48 -56 -119z" />
<glyph unicode="&#xb1;" horiz-adv-x="1651" d="M110 8q0 1 4 18.5t6 27.5q3 16 11 50q11 54 17 95l19 16q332 18 603 18q296 0 606 -19q0 -29 4 -103q0 -9 0.5 -27.5t1.5 -27.5q2 -27 3 -48q-338 25 -629 25q-298 0 -646 -25zM213 718q2 19 3 43q1 16 3 50q1 9 2 25t1 25q0 7 0.5 21.5t1.5 20.5q220 -10 512 -12 q9 95 18 221l11 142h184q-19 -151 -38 -363q292 2 513 11q-1 -3 -1.5 -10t-0.5 -10q-1 -18 -5 -47q-1 -11 -3 -19q-4 -24 -5 -49q-1 -7 -2 -18t-2 -18.5t-1 -13.5q-228 -4 -509 -4q-1 -4 0 -5v-5q-11 -116 -30 -351h-177q5 61 17 181q2 26 7.5 86.5l8.5 93.5q-299 0 -508 5z " />
<glyph unicode="&#xb2;" horiz-adv-x="994" d="M258 657l5 25q1 9 5 29t5 29q1 5 2.5 13.5t1.5 10.5q0 6 1 11q1 4 1 8l40 34q34 33 65 56q30 28 47 43q14 11 48 41q84 70 145 135q76 79 109 155q1 3 1 8v7q0 48 -45 80q-40 28 -95 28q-101 0 -259 -60q0 10 1 17q0 14 1 22q0 15 1 22v17q0 13 3 64q159 41 267 41 q115 0 192 -38q97 -50 97 -158q0 -17 -2 -33q-30 -102 -119 -203q-50 -57 -174 -162l-51 -44l-66 -53q16 1 48 1h48q134 0 283 -13v-30q0 -26 2 -74v-29q-158 19 -297 19q-132 0 -311 -19z" />
<glyph unicode="&#xb3;" horiz-adv-x="952" d="M249 687q6 30 13 79l7 60q94 -42 239 -42q85 0 138 32q68 39 68 116q0 55 -50 85q-45 27 -106 27h-10q-7 0 -10 -1h-93l2 41q2 18 3 41q1 22 3 40h79h8q3 -1 9 -1h16q65 0 110 29q53 32 53 93q0 45 -52 68q-40 16 -101 16q-78 0 -232 -30v14q0 11 1 18v18v13q1 7 1 19v19 v30q169 23 258 23q117 0 189 -33q99 -45 99 -148q0 -69 -43 -125q-40 -54 -105 -79q56 -20 94 -70q37 -51 37 -112t-19 -109q-23 -56 -73 -91q-63 -39 -141 -54q-60 -11 -139 -13q-113 0 -253 27z" />
<glyph unicode="&#xb4;" horiz-adv-x="823" d="M286 1195q33 35 113 125q23 26 108 128q74 92 136 162l14 6q14 0 56 2q31 2 66 3q90 4 122 7q-47 -43 -120 -116q-10 -11 -31 -32t-31 -32q-30 -32 -54 -57q-108 -118 -181 -187q-44 0 -99 -3q-29 -1 -54 -3q-27 -2 -45 -3z" />
<glyph unicode="&#xb5;" horiz-adv-x="1508" d="M158 -377q111 673 111 1379v110q9 -1 97 -6l51 -3q8 0 23 -0.5t22 -1.5q-2 -285 -12 -479q-2 -26 -2 -37q0 -98 41 -155q33 -40 86 -58q41 -14 100 -14q117 0 193 72q67 80 89 232v-1q21 176 59 424q75 2 120 6l78 4q-65 -372 -107 -827v-3q0 -25 30 -39q23 -11 57 -11 q16 0 36 11l38 12q-1 -5 -1.5 -17.5t-0.5 -18.5q-2 -28 -3 -43q-2 -30 -3 -44q-1 -21 -3 -37q-9 -5 -29 -17.5t-22 -13.5h1q-31 -19 -48 -28.5t-43.5 -19t-48.5 -9.5q-57 0 -95 41q-35 36 -48 94q-49 -58 -120 -94q-70 -36 -145 -36h-23q-74 0 -132 29q-66 31 -98 86 q-28 -301 -53 -495q-106 -6 -174 -15z" />
<glyph unicode="&#xb6;" horiz-adv-x="1564" d="M264 1031q0 98 29 175q34 91 108 148q66 52 165 78q73 19 177 19h1q15 -1 45 -1h45q154 0 348 14q-2 -176 -2 -280q0 -787 77 -1369q-191 26 -371 30q35 694 132 1472q-57 -3 -161 -3q-89 -986 -127 -1466q-110 0 -170 -2q-86 -3 -170 -8q78 349 155 805q-99 24 -189 123 q-92 109 -92 265z" />
<glyph unicode="&#xb7;" horiz-adv-x="558" d="M182 575q26 131 26 251l22 19q39 -5 90 -5q61 0 120 8q-27 -127 -27 -272q-69 6 -112 6q-41 0 -119 -7z" />
<glyph unicode="&#xb8;" horiz-adv-x="700" d="M-35 -350q8 34 18 103l7 47q62 -33 133 -33h14q3 -1 10 -1q37 0 67 23t30 60t-23 85q-12 25 -49 88h28q25 0 69 2h27l17 -7q76 -108 76 -197q0 -48 -20 -89q-23 -48 -64 -69q-67 -30 -173 -30q-77 0 -167 18z" />
<glyph unicode="&#xb9;" horiz-adv-x="979" d="M291 660l2 35q4 26 7 38q4 24 5 37l18 18q77 8 179 10q4 36 13 140l12 135q11 122 22 275l-32 -5q-21 -3 -88 -12q-64 -8 -89 -9v16v19q0 13 1 19v15q0 20 1 35v30q106 4 232 22h63h19q16 0 46 2h19q-40 -335 -64 -682q100 -2 193 -12q-2 -34 -2 -69q0 -21 3 -60 q-162 18 -290 18q-125 0 -270 -15z" />
<glyph unicode="&#xba;" horiz-adv-x="1092" d="M236 464l10 73l9 50l18 16q161 12 322 12q150 0 328 -12v-25q-1 -12 -1 -26v-49q0 -10 1 -19v-19q-179 16 -341 16q-156 0 -346 -17zM270 1044q0 95 23 175q26 97 89 158q48 51 134 79q67 21 150 21q85 0 146 -20q74 -24 119 -80h-1q66 -76 66 -211q0 -107 -25 -193 q-33 -112 -99 -178h1q-55 -56 -131 -80q-63 -21 -148 -21q-78 0 -140 24q-72 26 -113 77q-71 92 -71 249zM436 1137q0 -87 48 -141q49 -55 134 -55q102 0 166 84q58 76 58 182q0 80 -49 129q-47 47 -125 47h-8q-101 0 -156 -59q-68 -64 -68 -187z" />
<glyph unicode="&#xbb;" horiz-adv-x="1253" d="M167 119q2 17 5 60.5t5 66.5q6 94 7 127q165 132 309 240q-55 61 -108 120q-54 59 -108 120l-28 31q6 52 6 112v28q0 18 1 27l34 12q133 -141 386 -416l10 -62q8 -52 11 -64l-253 -192q-9 -7 -31 -24t-35 -26q-67 -50 -145 -110q-13 -9 -35 -26t-31 -24zM582 360 q128 96 303 232q-7 9 -22 26.5t-23 25.5q-31 36 -116 129q-38 41 -72 78l8 60q2 9 4.5 27t3.5 26q2 20 8 52l34 10q126 -135 358 -402q0 -2 1.5 -10.5t2.5 -13.5t2.5 -14t1.5 -11l15 -78q-159 -125 -248 -192q-174 -130 -251 -187q-1 8 -1.5 27t-0.5 29q-6 128 -6 130 q0 10 -0.5 29t-1.5 27z" />
<glyph unicode="&#xbc;" horiz-adv-x="1779" d="M288 -24q100 137 267 378q75 109 133 194q25 37 69.5 103t57.5 85q312 463 523 753l13 8q33 3 41 4q14 1 49 5q17 1 49 5l40 5q-92 -124 -282 -396q-54 -77 -274 -401q-308 -459 -501 -724l-43 -4q-13 -2 -31 -3q-7 0 -20 -2t-20 -2q-7 -1 -20.5 -2.5t-19.5 -1.5 q-4 -1 -31 -4zM291 660l2 35q4 26 7 38q4 24 5 37l18 18q77 8 179 10q4 36 13 140l12 135q11 122 22 275l-32 -5q-21 -3 -88 -12q-64 -8 -89 -9v16v19q0 13 1 19v15q0 20 1 35v30q106 4 232 22h63h19q16 0 46 2h19q-40 -335 -64 -682q100 -2 193 -12q-2 -34 -2 -69 q0 -21 3 -60q-162 18 -290 18q-125 0 -270 -15zM889 167q2 21 4 31q3 23 9 71q1 6 2.5 16t1.5 14q195 252 401 493l15 7q106 2 169 6q-33 -195 -58 -510h10q3 -1 10 -1q6 0 24 -0.5t28 -0.5q9 -1 28 -1q9 -1 24 -1q-2 -13 -3 -34q-2 -23 -3 -36q0 -25 -4 -52h-28 q-4 0 -12.5 0.5t-12.5 1.5q-14 0 -21 1q-28 2 -48 2q-4 -75 -4 -177q-5 1 -17.5 1.5t-18.5 0.5q-28 0 -43 1q-60 2 -80 2q0 5 1.5 29t2.5 39t2.5 39t1.5 29l3 38h-58q-144 0 -326 -9zM1030 295q26 0 43 1h50h51h42h65q16 207 32 348q-21 -24 -101 -124q-33 -41 -101 -125z M1313 644l41 48l-33 15z" />
<glyph unicode="&#xbd;" horiz-adv-x="2100" d="M288 -24q100 137 267 378q75 109 133 194q25 37 69.5 103t57.5 85q312 463 523 753l13 8q33 3 41 4q14 1 49 5q17 1 49 5l40 5q-92 -124 -282 -396q-54 -77 -274 -401q-308 -459 -501 -724l-43 -4q-13 -2 -31 -3q-7 0 -20 -2t-20 -2q-7 -1 -20.5 -2.5t-19.5 -1.5 q-4 -1 -31 -4zM291 660l2 35q4 26 7 38q4 24 5 37l18 18q77 8 179 10q4 36 13 140l12 135q11 122 22 275l-32 -5q-21 -3 -88 -12q-64 -8 -89 -9v16v19q0 13 1 19v15q0 20 1 35v30q106 4 232 22h63h19q16 0 46 2h19q-40 -335 -64 -682q100 -2 193 -12q-2 -34 -2 -69 q0 -21 3 -60q-162 18 -290 18q-125 0 -270 -15zM1222 -9q0 3 1 7t2 9t2 9q1 9 5 29t5 29q1 5 2.5 13.5t1.5 10.5q0 6 1 11q1 4 1 8l40 34q34 33 65 56q30 28 47 43q14 11 48 41q84 70 145 135q76 79 109 155q1 3 1 8v7q0 48 -45 80q-40 28 -95 28q-101 0 -259 -60q0 10 1 17 q0 14 1 22q0 15 1 22v17q0 13 3 64q159 41 267 41q115 0 192 -38q97 -50 97 -158q0 -17 -2 -33q-30 -102 -119 -203q-50 -57 -174 -162l-51 -44l-66 -53q16 1 48 1h48q134 0 283 -13v-30q0 -26 2 -74v-29q-158 19 -297 19q-132 0 -311 -19z" />
<glyph unicode="&#xbe;" horiz-adv-x="1747" d="M249 687q6 30 13 79l7 60q94 -42 239 -42q85 0 138 32q68 39 68 116q0 55 -50 85q-45 27 -106 27h-10q-7 0 -10 -1h-93l2 41q2 18 3 41q1 22 3 40h79h8q3 -1 9 -1h16q65 0 110 29q53 32 53 93q0 45 -52 68q-40 16 -101 16q-78 0 -232 -30v14q0 11 1 18v18v13q1 7 1 19v19 v30q169 23 258 23q117 0 189 -33q99 -45 99 -148q0 -69 -43 -125q-40 -54 -105 -79q56 -20 94 -70q37 -51 37 -112t-19 -109q-23 -56 -73 -91q-63 -39 -141 -54q-60 -11 -139 -13q-113 0 -253 27zM256 -24q100 137 267 378q75 109 133 194q25 37 69.5 103t57.5 85 q312 463 523 753l13 8q33 3 41 4q14 1 49 5q17 1 49 5l40 5q-92 -124 -282 -396q-54 -77 -274 -401q-308 -459 -501 -724l-43 -4q-13 -2 -31 -3q-7 0 -20.5 -2t-19.5 -2q-7 -1 -20.5 -2.5t-19.5 -1.5q-4 -1 -31 -4zM857 167q2 21 4 31q3 23 9 71q1 6 2.5 16t1.5 14 q195 252 401 493l15 7q106 2 169 6q-33 -195 -58 -510h10q3 -1 10 -1q6 0 24 -0.5t28 -0.5q9 -1 28 -1q9 -1 24 -1q-2 -13 -3 -34q-2 -23 -3 -36q0 -25 -4 -52h-28q-4 0 -12.5 0.5t-12.5 1.5q-14 0 -21 1q-28 2 -48 2q-4 -75 -4 -177q-5 1 -17.5 1.5t-18.5 0.5q-28 0 -43 1 q-60 2 -80 2q0 5 1.5 29t2.5 39t2.5 39t1.5 29l3 38h-58q-144 0 -326 -9zM998 295q26 0 43 1h50h51h42h65q16 207 32 348q-21 -24 -101 -124q-33 -41 -101 -125zM1281 644l41 48l-33 15z" />
<glyph unicode="&#xbf;" horiz-adv-x="1104" d="M102 286q0 120 71 222q7 10 14.5 20t17 20.5t16 18.5t18 20t17 17.5t20 19.5t18 17.5t20 19t19.5 18.5l41 39v-1l13 11q65 63 82 103q12 31 18 97l3 25l11 124h39h47q30 0 45 1h38l-13 -158q-10 -88 -36 -136q-22 -34 -56.5 -71.5t-59 -60t-69.5 -62.5q-54 -47 -81 -89 q-36 -56 -36 -111q0 -76 64 -116q54 -34 134 -34q73 0 173 35q69 25 177 85q-1 -12 -6 -132q-1 -25 -3 -71q0 -11 -0.5 -32t-1.5 -30q-182 -86 -387 -86q-153 0 -248 57q-119 71 -119 220zM507 1194q1 14 4.5 59t5.5 71l6 69q1 24 5 61q32 0 51 1q39 0 59 1q69 0 108 4 q-2 -20 -7 -61t-7 -62t-7 -62t-7 -61l-18 -17q-59 -3 -193 -3z" />
<glyph unicode="&#xc0;" d="M34 7q92 158 188.5 346t158.5 318t157 337q169 363 210 447h197q31 -104 110 -386q96 -342 154 -525q93 -294 195 -537q-43 4 -151 12q-31 2 -85 5.5t-68 4.5q-29 119 -51 233q-103 3 -306 3q-201 0 -309 -3q-15 -39 -52 -118q-47 -95 -56 -116q-7 0 -30.5 -1.5 t-37.5 -2.5q-25 -2 -77 -6q-55 -4 -78 -5q-37 -3 -69 -6zM498 1779q35 -4 100 -6q9 0 27.5 -0.5t27.5 -1.5q17 -1 45 -1l15 -8q23 -31 63 -95q35 -56 47 -73q24 -34 74 -95q-78 4 -88 4q-8 0 -24.5 0.5t-24.5 1.5q-16 1 -39 1q-10 12 -47 57q-5 7 -21.5 27t-24.5 30 q-21 25 -30 38q-11 14 -34.5 43t-35.5 43zM525 507q40 1 118 1h117h67q22 -1 66 -1h107q-36 147 -49 205q-32 136 -49 205q-9 38 -37 161q-13 53 -39 161l-120 -297q-113 -275 -181 -435zM813 1294q4 -18 7 -27q4 -13 6 -28l23 52z" />
<glyph unicode="&#xc1;" d="M34 7q92 158 188.5 346t158.5 318t157 337q169 363 210 447h197q31 -104 110 -386q96 -342 154 -525q93 -294 195 -537q-43 4 -151 12q-31 2 -85 5.5t-68 4.5q-29 119 -51 233q-103 3 -306 3q-201 0 -309 -3q-15 -39 -52 -118q-47 -95 -56 -116q-7 0 -30.5 -1.5 t-37.5 -2.5q-25 -2 -77 -6q-55 -4 -78 -5q-37 -3 -69 -6zM525 507q40 1 118 1h117h67q22 -1 66 -1h107q-36 147 -49 205q-32 136 -49 205q-9 38 -37 161q-13 53 -39 161l-120 -297q-113 -275 -181 -435zM726 1497q48 50 90 98q43 50 67 81v-1q68 82 73 88l14 7q28 0 47 1 q10 1 29 1t28 1q69 2 104 6q-55 -50 -102 -97q-25 -25 -35 -36q-34 -37 -81 -87l-53 -53q-34 -2 -57 -2q-16 0 -27 -1q-6 -1 -17.5 -1.5t-17.5 -0.5q-27 -1 -62 -4zM813 1294q4 -18 7 -27q4 -13 6 -28l23 52z" />
<glyph unicode="&#xc2;" d="M34 7q92 158 188.5 346t158.5 318t157 337q169 363 210 447h197q31 -104 110 -386q96 -342 154 -525q93 -294 195 -537q-43 4 -151 12q-31 2 -85 5.5t-68 4.5q-29 119 -51 233q-103 3 -306 3q-201 0 -309 -3q-15 -39 -52 -118q-47 -95 -56 -116q-7 0 -30.5 -1.5 t-37.5 -2.5q-25 -2 -77 -6q-55 -4 -78 -5q-37 -3 -69 -6zM524 1521q72 63 123 118q19 21 85 99h-1l44 54h192l30 -48v1q39 -66 70 -105q46 -62 106 -119h-17q-17 0 -26 1h-26h-17q-48 2 -81 2q-52 47 -120 134v1q-6 7 -12 13q-4 4 -11 14l-16 -16q-106 -106 -155 -146 q-31 0 -79 -2h-17h-27q-10 -1 -27 -1h-18zM525 507q40 1 118 1h117h67q22 -1 66 -1h107q-36 147 -49 205q-32 136 -49 205q-9 38 -37 161q-13 53 -39 161l-120 -297q-113 -275 -181 -435zM813 1294q4 -18 7 -27q4 -13 6 -28l23 52z" />
<glyph unicode="&#xc3;" d="M34 7q92 158 188.5 346t158.5 318t157 337q169 363 210 447h197q31 -104 110 -386q96 -342 154 -525q93 -294 195 -537q-43 4 -151 12q-31 2 -85 5.5t-68 4.5q-29 119 -51 233q-103 3 -306 3q-201 0 -309 -3q-15 -39 -52 -118q-47 -95 -56 -116q-7 0 -30.5 -1.5 t-37.5 -2.5q-25 -2 -77 -6q-55 -4 -78 -5q-37 -3 -69 -6zM525 507q40 1 118 1h117h67q22 -1 66 -1h107q-36 147 -49 205q-32 136 -49 205q-9 38 -37 161q-13 53 -39 161l-120 -297q-113 -275 -181 -435zM607 1532l26 64q4 8 10.5 23.5t9.5 20.5q9 23 22 43q24 37 61 56.5 t76 19.5h16q31 0 63 -9.5t52.5 -20.5t54.5 -31l-1 1q1 -1 3 -2.5t3.5 -2t3 -2l2.5 -2.5q33 -21 67 -21q-2 2 8 9q26 18 54 34q8 4 23 13l-11 35q50 2 75 2h14q12 0 19 1h18h14l-24 -53q-40 -84 -67 -117q-49 -58 -116 -58q-30 0 -58 6t-44.5 13.5t-46.5 21.5h-1 q-5 4 -15.5 10t-16.5 10q-52 33 -76 33q-27 0 -49 -31q-20 -27 -28 -61l-36 6q0 -6 -8 -8q-22 -2 -37 -2h-21q-8 -1 -22 -1h-17zM813 1294q4 -18 7 -27q4 -13 6 -28l23 52z" />
<glyph unicode="&#xc4;" d="M34 7q92 158 188.5 346t158.5 318t157 337q169 363 210 447h197q31 -104 110 -386q96 -342 154 -525q93 -294 195 -537q-43 4 -151 12q-31 2 -85 5.5t-68 4.5q-29 119 -51 233q-103 3 -306 3q-201 0 -309 -3q-15 -39 -52 -118q-47 -95 -56 -116q-7 0 -30.5 -1.5 t-37.5 -2.5q-25 -2 -77 -6q-55 -4 -78 -5q-37 -3 -69 -6zM525 507q40 1 118 1h117h67q22 -1 66 -1h107q-36 147 -49 205q-32 136 -49 205q-9 38 -37 161q-13 53 -39 161l-120 -297q-113 -275 -181 -435zM665 1531q38 72 38 129q0 33 -10 63l20 25q60 -2 97 -2 q16 0 48.5 -0.5t47.5 -1.5v-36q0 -6 1 -8v-7q0 -69 -19 -158h-37q-16 -1 -38 -1h-33q-13 -1 -40 -1q-14 -1 -40 -1q-13 -1 -35 -1zM813 1294q4 -18 7 -27q4 -13 6 -28l23 52zM1053 1596q0 67 17 134l18 14q31 0 105 2q9 0 27.5 1t28.5 1q34 0 49 1q-40 -82 -40 -130 q0 -30 20 -88q-21 0 -34 1q-25 0 -38 1q-26 0 -39 1h-34q-23 0 -39 1h-39q-2 26 -2 61z" />
<glyph unicode="&#xc5;" horiz-adv-x="1669" d="M33 5q142 265 300 597q135 284 281 604q5 10 16.5 35.5t18.5 39.5t18 39.5t16 35.5q-46 36 -72 89t-26 113q0 122 89 206q85 80 211 80q100 0 170 -67q70 -68 70 -168q0 -75 -36.5 -142t-100.5 -113l80 -284q84 -306 150 -522q91 -299 185 -542q-37 5 -113 12 q-42 4 -61 6q-44 4 -53 5q-63 182 -116 371q-91 3 -270 3q-145 0 -345 -5q-100 -215 -177 -370q-4 0 -23 -1.5t-31 -2.5q-21 -2 -64 -6t-63 -6q-12 -2 -31 -4t-23 -3zM531 578q86 2 127 2h126h58h52h53q17 -1 56 -1q-19 69 -57 209q-10 34 -28 103t-28 104l-64 237l-64 -142 q-6 -14 -26.5 -60.5t-31.5 -70.5q-38 -84 -57 -125q-42 -96 -116 -256zM720 1563q0 -51 37 -86t88 -35q52 0 95 41q42 39 48 94v1q1 3 1 8v6q0 50 -35 83q-35 32 -86 32q-60 0 -103 -41q-45 -42 -45 -103z" />
<glyph unicode="&#xc6;" horiz-adv-x="2145" d="M34 7q173 267 347 607q103 200 287 598l115 245q94 -2 147 -2h146q470 0 886 28l20 -24q-11 -41 -37 -162q-310 -17 -704 -22q-16 -123 -29 -276q-19 -188 -26 -276h647q0 -10 -2 -40q-1 -8 -1 -22q0 -3 -0.5 -9t-1.5 -9q-5 -54 -7 -105q-274 5 -650 5l-10 -124l-9 -118 q337 -1 707 -19q1 -57 8 -137q3 -50 12 -137q-258 15 -479 22q-230 7 -481 7q3 37 16 184q0 3 0.5 9t1.5 9q0 4 0.5 8.5t1.5 10t1 8.5q0 11 1 18q-230 0 -478 -6l-6 -54q-18 -135 -27 -196q-11 0 -42.5 -1.5t-50.5 -2.5q-84 -4 -209 -11q-48 -3 -94 -6zM557 458q97 1 199 3 q64 1 200 1q26 285 72 823h-52q-35 0 -54 1l-99 -231q-186 -432 -266 -597z" />
<glyph unicode="&#xc7;" horiz-adv-x="1529" d="M195 631q0 179 47 341q58 199 171 317q107 103 266 152q129 40 295 40q257 0 417 -113l-18 -10l24 -2q-4 -19 -9 -52q-1 -8 -4.5 -28t-5.5 -31q-10 -55 -17 -112q-83 83 -186 127t-210 44q-115 0 -205 -27q-112 -33 -184 -106h1q-93 -98 -132 -241q-34 -120 -34 -258 q0 -85 19 -146q23 -75 72 -118l-1 1q67 -54 173 -76q82 -17 193 -17q110 0 218 46q116 49 213 136q-1 -14 -6 -165q-4 -118 -4 -164v-42q-189 -118 -446 -118q-156 0 -285 41q-146 46 -237 149q-67 84 -98 202q-27 99 -27 230zM362 -251q8 34 18 103l7 47q62 -33 133 -33h14 q3 -1 10 -1q37 0 67 23t30 60t-23 85q-12 25 -49 88h28q25 0 69 2h27l17 -7q76 -108 76 -197q0 -48 -20 -89q-23 -48 -64 -69q-67 -30 -173 -30q-77 0 -167 18z" />
<glyph unicode="&#xc8;" horiz-adv-x="1532" d="M306 7q123 726 129 1458l23 19q219 -30 442 -30q218 0 478 31l-14 -83q-12 -76 -16 -105q-223 -23 -441 -23q-134 0 -264 7q-5 -103 -12 -198q-3 -36 -7.5 -105t-6.5 -95q152 -2 222 -2q157 0 431 6q-10 -56 -16 -134q0 -14 -1 -25t-1 -25h-172q-61 -1 -172 -1h-307 q-8 -105 -16 -179q-1 -15 -4.5 -44.5t-5.5 -43.5q-1 -12 -4.5 -43t-5.5 -48q142 5 252 5q220 0 455 -19q-3 -46 -5 -161q-1 -29 -1 -85v-77q-247 30 -472 30q-216 0 -488 -30zM410 1779q35 -4 100 -6q9 0 27.5 -0.5t27.5 -1.5q17 -1 45 -1l15 -8q23 -31 63 -95 q35 -56 47 -73q24 -34 74 -95q-78 4 -88 4q-8 0 -24.5 0.5t-24.5 1.5q-16 1 -39 1q-10 12 -47 57q-5 7 -21.5 27t-24.5 30q-21 25 -30 38q-12 14 -35 43t-35 43z" />
<glyph unicode="&#xc9;" horiz-adv-x="1441" d="M215 7q123 726 129 1458l23 19q219 -30 442 -30q218 0 478 31l-14 -83q-12 -76 -16 -105q-223 -23 -441 -23q-134 0 -264 7q-4 -103 -12 -198q-3 -36 -7.5 -105t-6.5 -95q152 -2 222 -2q157 0 431 6q-10 -56 -16 -134q0 -14 -1 -25t-1 -25h-172q-61 -1 -172 -1h-307 q-8 -105 -16 -179q-1 -15 -5 -44.5t-5 -43.5q-1 -12 -4.5 -43t-5.5 -48q142 5 252 5q220 0 455 -19q-3 -46 -5 -161q-1 -29 -1 -85v-77q-247 30 -472 30q-216 0 -488 -30zM447 1497q48 50 90 98q43 50 67 81v-1q68 82 73 88l14 7q28 0 47 1q10 1 29 1t28 1q69 2 104 6 q-55 -50 -102 -97q-25 -25 -35 -36q-34 -37 -81 -87l-53 -53q-34 -2 -57 -2q-16 0 -27 -1q-6 -1 -17.5 -1.5t-17.5 -0.5q-27 -1 -62 -4z" />
<glyph unicode="&#xca;" horiz-adv-x="1441" d="M215 7q123 726 129 1458l23 19q219 -30 442 -30q218 0 478 31l-14 -83q-12 -76 -16 -105q-223 -23 -441 -23q-134 0 -264 7q-4 -103 -12 -198q-3 -36 -7.5 -105t-6.5 -95q152 -2 222 -2q157 0 431 6q-10 -56 -16 -134q0 -14 -1 -25t-1 -25h-172q-61 -1 -172 -1h-307 q-8 -105 -16 -179q-1 -15 -5 -44.5t-5 -43.5q-1 -12 -4.5 -43t-5.5 -48q142 5 252 5q220 0 455 -19q-3 -46 -5 -161q-1 -29 -1 -85v-77q-247 30 -472 30q-216 0 -488 -30zM391 1501q72 63 123 118q19 21 85 99h-1l44 54h192l30 -48v1q39 -66 70 -105q46 -62 106 -119h-17 q-17 0 -26 1h-26h-17q-48 2 -81 2q-52 47 -120 134v1q-6 7 -12 13q-4 4 -11 14l-16 -16q-106 -106 -155 -146q-31 0 -79 -2h-17h-27q-10 -1 -27 -1h-18z" />
<glyph unicode="&#xcb;" horiz-adv-x="1441" d="M215 7q123 726 129 1458l23 19q219 -30 442 -30q218 0 478 31l-14 -83q-12 -76 -16 -105q-223 -23 -441 -23q-134 0 -264 7q-4 -103 -12 -198q-3 -36 -7.5 -105t-6.5 -95q152 -2 222 -2q157 0 431 6q-10 -56 -16 -134q0 -14 -1 -25t-1 -25h-172q-61 -1 -172 -1h-307 q-8 -105 -16 -179q-1 -15 -5 -44.5t-5 -43.5q-1 -12 -4.5 -43t-5.5 -48q142 5 252 5q220 0 455 -19q-3 -46 -5 -161q-1 -29 -1 -85v-77q-247 30 -472 30q-216 0 -488 -30zM487 1531q38 72 38 129q0 33 -10 63l20 25q60 -2 97 -2q16 0 48.5 -0.5t47.5 -1.5v-36q0 -6 1 -8v-7 q0 -69 -19 -158h-37q-16 -1 -38 -1h-33q-13 -1 -40 -1q-14 -1 -40 -1q-13 -1 -35 -1zM875 1596q0 67 17 134l18 14q31 0 105 2q10 0 28.5 1t27.5 1q34 0 49 1q-40 -82 -40 -130q0 -30 20 -88q-21 0 -34 1q-25 0 -38 1q-26 0 -39 1h-34q-23 0 -39 1h-39q-2 26 -2 61z" />
<glyph unicode="&#xcc;" horiz-adv-x="1106" d="M410 1779q35 -4 100 -6q9 0 27.5 -0.5t27.5 -1.5q17 -1 45 -1l15 -8q23 -31 63 -95q35 -56 47 -73q24 -34 74 -95q-78 4 -88 4q-8 0 -24.5 0.5t-24.5 1.5q-16 1 -39 1q-10 12 -47 57q-5 7 -21.5 27t-24.5 30q-21 25 -30 38q-12 14 -35 43t-35 43zM579 -5q85 678 159 1456 l26 16q39 -12 69 -12q42 0 114 32q-34 -382 -61 -745q-27 -338 -49 -746q-70 41 -122 41q-50 0 -136 -42z" />
<glyph unicode="&#xcd;" horiz-adv-x="940" d="M372 1597q48 50 90 98q43 50 67 81v-1q68 82 73 88l14 7q28 0 47 1q9 1 28 1t29 1q69 2 104 6q-55 -50 -102 -97q-25 -25 -35 -36q-34 -37 -81 -87q-6 -6 -17 -17.5t-19.5 -20t-16.5 -15.5q-34 -2 -57 -2q-16 0 -27 -1q-6 -1 -17.5 -1.5t-17.5 -0.5q-27 -1 -62 -4z M413 -5q85 678 159 1456l26 16q39 -12 69 -12q42 0 114 32q-34 -382 -61 -745q-27 -338 -49 -746q-70 41 -122 41q-50 0 -136 -42z" />
<glyph unicode="&#xce;" horiz-adv-x="1075" d="M351 1501q72 63 123 118q19 21 85 99h-1l44 54h192l30 -48v1q39 -66 70 -105q46 -62 106 -119h-17q-17 0 -26 1h-26h-17q-48 2 -81 2q-52 47 -120 134v1q-6 7 -12 13q-4 4 -11 14l-16 -16q-106 -106 -155 -146q-31 0 -79 -2h-17h-27q-10 -1 -27 -1h-18zM548 -5 q85 678 159 1456l26 16q39 -12 69 -12q42 0 114 32q-34 -382 -61 -745q-27 -338 -49 -746q-70 41 -122 41q-50 0 -136 -42z" />
<glyph unicode="&#xcf;" horiz-adv-x="925" d="M370 1531q38 72 38 129q0 33 -10 63l20 25q60 -2 97 -2q16 0 48.5 -0.5t47.5 -1.5v-36q0 -6 1 -8v-7q0 -69 -19 -158h-37q-16 -1 -38 -1h-33q-13 -1 -40 -1q-14 -1 -40 -1q-13 -1 -35 -1zM371 -5q85 678 159 1456l26 16q39 -12 69 -12q42 0 114 32q-34 -382 -61 -745 q-27 -338 -49 -746q-70 41 -122 41q-50 0 -136 -42zM758 1596q0 67 17 134l18 14q31 0 105 2q10 0 28 1t28 1q34 0 49 1q-40 -82 -40 -130q0 -30 20 -88q-21 0 -34 1q-25 0 -38 1q-26 0 -39 1h-34q-23 0 -39 1h-39q-2 26 -2 61z" />
<glyph unicode="&#xd0;" horiz-adv-x="1676" d="M203 691q1 5 1.5 18t0.5 20q1 23 3 37q0 13 1 20q1 4 1.5 11.5t0.5 11.5q0 16 1 23t1 19h40q64 -2 91 -2q15 -1 51 -1q23 275 23 601l20 19q89 -5 347 -12h25q9 -1 24 -1q214 -6 317 -28q175 -37 281 -135q69 -70 103 -186q25 -91 25 -218t-15 -231q-20 -141 -65 -248 q-55 -132 -147 -211q-120 -95 -300 -132q-117 -24 -320 -30q-115 0 -211 -4q-143 -6 -212 -10q58 314 93 669h-180zM537 209q37 1 109 3q132 0 221 7q123 10 220 56q53 25 95 64h-1q92 84 135 250q28 113 28 269q0 89 -19 160q-22 80 -70 137q-73 70 -186 99q-88 22 -218 24 l-221 2q-9 -163 -11 -216q-7 -120 -16 -217h308l-13 -155h-154q-103 0 -154 -1q-8 -82 -11 -121q-15 -150 -26 -238q-2 -16 -7.5 -58t-8.5 -65zM612 1281h9q3 -1 9 -1v10q0 7 1 10z" />
<glyph unicode="&#xd1;" horiz-adv-x="1579" d="M167 7q149 697 169 1424l22 19q67 -8 187 -16h-1q15 0 25 -1t25 -1q105 -206 304 -656q7 -15 24.5 -54t25.5 -59q74 -166 92 -203q9 -19 26.5 -57t26.5 -56q45 592 146 1121q36 3 47 4q17 1 55 5q19 1 55 5t46 5q-131 -713 -131 -1344q0 -57 2 -135q-70 8 -150 14 q-31 2 -86 5.5t-64 4.5q-120 240 -307 675q-62 147 -102 244q-54 130 -105 241q-4 -563 -60 -1163q-7 0 -29 -1.5t-35 -2.5q-45 -4 -71 -5q-50 -4 -137 -13zM515 1532l26 64q4 8 10.5 23.5t9.5 20.5q9 23 22 43q24 37 61 56.5t76 19.5h16q31 0 63 -9.5t52.5 -20.5t54.5 -31 l-1 1q1 -1 3 -2.5t3.5 -2t3 -2l2.5 -2.5q33 -21 67 -21q-2 2 8 9q26 18 54 34q8 4 23 13l-11 35q50 2 75 2h14q12 0 19 1h18h14l-24 -53q-40 -84 -67 -117q-49 -58 -116 -58q-30 0 -58 6t-44.5 13.5t-46.5 21.5h-1q-6 4 -16 10t-16 10q-52 33 -76 33q-27 0 -49 -31 q-20 -27 -28 -61l-36 6q0 -6 -8 -8q-22 -2 -37 -2h-21q-8 -1 -22 -1h-17z" />
<glyph unicode="&#xd2;" horiz-adv-x="1605" d="M199 618q0 195 40 347q53 200 170 323h-1q93 102 233 150q122 42 268 42q144 0 259 -44q134 -51 207 -149q63 -84 91 -196q24 -96 24 -220q0 -189 -44 -348q-52 -192 -166 -322q-98 -104 -238 -150q-124 -41 -273 -41q-137 0 -252 45q-127 49 -202 147q-61 79 -90 196 q-26 103 -26 220zM416 675q0 -73 17 -123q20 -64 68 -93q60 -38 149 -55q73 -14 162 -14q193 0 322 70q81 52 117 180q23 86 23 203q0 197 -75 319v-1q-49 70 -129 107t-173 37q-97 0 -182 -35q-95 -39 -152 -112q-77 -92 -115 -232q-32 -118 -32 -251zM540 1879 q35 -4 100 -6q9 0 27.5 -0.5t27.5 -1.5q17 -1 45 -1l15 -8q23 -31 63 -95q35 -56 47 -73q24 -34 74 -95q-78 4 -88 4q-8 0 -24.5 0.5t-24.5 1.5q-16 1 -39 1q-10 12 -47 57q-5 7 -21.5 27t-24.5 30q-21 25 -30 38q-12 14 -35.5 43t-34.5 43z" />
<glyph unicode="&#xd3;" horiz-adv-x="1605" d="M199 618q0 195 40 347q53 200 170 323h-1q93 102 233 150q122 42 268 42q144 0 259 -44q134 -51 207 -149q63 -84 91 -196q24 -96 24 -220q0 -189 -44 -348q-52 -192 -166 -322q-98 -104 -238 -150q-124 -41 -273 -41q-137 0 -252 45q-127 49 -202 147q-61 79 -90 196 q-26 103 -26 220zM416 675q0 -73 17 -123q20 -64 68 -93q60 -38 149 -55q73 -14 162 -14q193 0 322 70q81 52 117 180q23 86 23 203q0 197 -75 319v-1q-49 70 -129 107t-173 37q-97 0 -182 -35q-95 -39 -152 -112q-77 -92 -115 -232q-32 -118 -32 -251zM568 1597 q48 50 90 98q43 50 67 81v-1q68 82 73 88l14 7q28 0 47 1q9 1 28 1t29 1q69 2 104 6q-55 -50 -102 -97q-25 -25 -35 -36q-34 -37 -81 -87l-53 -53q-34 -2 -57 -2q-16 0 -27 -1q-6 -1 -17.5 -1.5t-17.5 -0.5q-27 -1 -62 -4z" />
<glyph unicode="&#xd4;" horiz-adv-x="1605" d="M199 618q0 195 40 347q53 200 170 323h-1q93 102 233 150q122 42 268 42q144 0 259 -44q134 -51 207 -149q63 -84 91 -196q24 -96 24 -220q0 -189 -44 -348q-52 -192 -166 -322q-98 -104 -238 -150q-124 -41 -273 -41q-137 0 -252 45q-127 49 -202 147q-61 79 -90 196 q-26 103 -26 220zM416 675q0 -73 17 -123q20 -64 68 -93q60 -38 149 -55q73 -14 162 -14q193 0 322 70q81 52 117 180q23 86 23 203q0 197 -75 319v-1q-49 70 -129 107t-173 37q-97 0 -182 -35q-95 -39 -152 -112q-77 -92 -115 -232q-32 -118 -32 -251zM512 1501 q72 63 123 118q19 21 85 99h-1l44 54h192l30 -48v1q39 -66 70 -105q46 -62 106 -119h-17q-17 0 -26 1h-26h-17q-48 2 -81 2q-52 47 -120 134v1q-6 7 -12 13q-4 4 -11 14l-16 -16q-106 -106 -155 -146q-31 0 -79 -2h-17h-27q-10 -1 -27 -1h-18z" />
<glyph unicode="&#xd5;" horiz-adv-x="1605" d="M199 618q0 195 40 347q53 200 170 323h-1q93 102 233 150q122 42 268 42q144 0 259 -44q134 -51 207 -149q63 -84 91 -196q24 -96 24 -220q0 -189 -44 -348q-52 -192 -166 -322q-98 -104 -238 -150q-124 -41 -273 -41q-137 0 -252 45q-127 49 -202 147q-61 79 -90 196 q-26 103 -26 220zM416 675q0 -73 17 -123q20 -64 68 -93q60 -38 149 -55q73 -14 162 -14q193 0 322 70q81 52 117 180q23 86 23 203q0 197 -75 319v-1q-49 70 -129 107t-173 37q-97 0 -182 -35q-95 -39 -152 -112q-77 -92 -115 -232q-32 -118 -32 -251zM649 1532l26 64 q4 8 10.5 23.5t9.5 20.5q9 23 22 43q24 37 61 56.5t76 19.5h16q31 0 63 -9.5t52.5 -20.5t54.5 -31l-1 1q1 -1 3 -2.5t3.5 -2t3 -2l2.5 -2.5q33 -21 67 -21q-2 2 8 9q26 18 54 34q8 4 23 13l-11 35q50 2 75 2h14q12 0 19 1h18h14l-24 -53q-40 -84 -67 -117q-49 -58 -116 -58 q-30 0 -58 6t-44.5 13.5t-46.5 21.5h-1q-6 4 -16.5 10t-15.5 10q-52 33 -76 33q-27 0 -49 -31q-20 -27 -28 -61l-36 6q0 -6 -8 -8q-22 -2 -37 -2h-21q-8 -1 -22 -1h-17z" />
<glyph unicode="&#xd6;" horiz-adv-x="1605" d="M199 618q0 195 40 347q53 200 170 323h-1q93 102 233 150q122 42 268 42q144 0 259 -44q134 -51 207 -149q63 -84 91 -196q24 -96 24 -220q0 -189 -44 -348q-52 -192 -166 -322q-98 -104 -238 -150q-124 -41 -273 -41q-137 0 -252 45q-127 49 -202 147q-61 79 -90 196 q-26 103 -26 220zM416 675q0 -73 17 -123q20 -64 68 -93q60 -38 149 -55q73 -14 162 -14q193 0 322 70q81 52 117 180q23 86 23 203q0 197 -75 319v-1q-49 70 -129 107t-173 37q-97 0 -182 -35q-95 -39 -152 -112q-77 -92 -115 -232q-32 -118 -32 -251zM607 1531 q38 72 38 129q0 33 -10 63l20 25q60 -2 97 -2q16 0 48.5 -0.5t47.5 -1.5v-36q0 -6 1 -8v-7q0 -69 -19 -158h-37q-16 -1 -38 -1h-33q-13 -1 -40 -1q-14 -1 -40 -1q-13 -1 -35 -1zM995 1596q0 67 17 134l18 14q31 0 105 2q9 0 28 1t28 1q34 0 49 1q-40 -82 -40 -130 q0 -30 20 -88q-21 0 -34 1q-25 0 -38 1q-26 0 -39 1h-34q-23 0 -39 1h-39q-2 26 -2 61z" />
<glyph unicode="&#xd7;" horiz-adv-x="1424" d="M163 298q119 113 207 196q113 104 182 169q-16 19 -50 57l-51 57q-130 148 -204 235l58 58q11 11 30.5 30t27.5 27l56 55l98 -106q84 -90 111 -119q43 -45 108 -121q171 161 415 376l53 -63h-1q13 -16 47 -54q16 -20 24 -29q10 -15 21 -27l-208 -195l-194 -183 q163 -184 327 -363q-26 -26 -43 -42q-31 -31 -42 -44q-19 -18 -43 -43q-31 -31 -43 -42q-145 145 -341 362q-256 -237 -402 -363q-17 20 -85 102q-8 10 -13 17q-1 1 -7 8t-9 11l-15 18q-2 3 -7 8t-7 8z" />
<glyph unicode="&#xd8;" horiz-adv-x="1605" d="M93 40q37 42 107 114l85 89q-88 157 -88 382q0 186 43 343q55 199 167 319q92 98 233 148q123 44 268 44q117 0 216 -30q108 -33 186 -100q102 107 189 194q10 -8 29 -26q5 -5 10 -10.5t10.5 -10.5t7.5 -7q3 -4 13 -13q9 -10 29 -26q-8 -8 -26.5 -27.5t-29.5 -30.5 q-40 -40 -56 -57l-86 -90q90 -156 90 -389q0 -182 -46 -341q-54 -187 -166 -314q-93 -100 -235 -149q-123 -42 -271 -42q-240 0 -397 128q-27 -27 -40 -41q-55 -59 -93 -98q-9 -10 -27 -28.5t-26 -26.5l-22 22q-4 4 -8.5 8t-9.5 9.5t-8 8.5l-27 27q-14 12 -21 21zM389 730 q0 -132 96 -262l294 315q157 170 388 415q-48 79 -109 106q-90 38 -201 38q-93 0 -175 -36q-89 -40 -147 -109q-74 -92 -112 -224q-34 -115 -34 -243zM577 358q48 -30 93 -34q47 -3 144 -3q97 15 160 39q88 32 143 83v-1q62 63 103 169q26 67 55 189q0 8 1 13t1 12 q3 32 3 62q0 89 -39 186l-284 -307q-20 -21 -85.5 -91.5t-102.5 -111.5q-114 -125 -192 -205zM1167 1198l8 -13l2 23zM1235 1089l6 -16l4 4q4 -1 4 0h4z" />
<glyph unicode="&#xd9;" horiz-adv-x="1523" d="M291 441q0 55 7 127q45 448 45 827v69l22 19q107 -14 193 -20q-7 -323 -41 -740q-5 -58 -5 -104q0 -139 51 -215h-1q35 -51 107 -72q58 -17 138 -17q79 0 141 19q77 23 120 72q47 63 73 153q20 70 29 169q13 130 19 182q15 159 45 375q12 93 27 180q81 6 144 13l76 7 q-78 -394 -118 -921q-9 -126 -37 -217q-35 -116 -111 -197q-87 -82 -207 -115q-96 -26 -223 -26t-215 23q-115 30 -182 101q-52 59 -77 147q-20 69 -20 161zM500 1879q35 -4 100 -6q9 0 27.5 -0.5t27.5 -1.5q17 -1 45 -1l15 -8q23 -31 63 -95q35 -56 47 -73q24 -34 74 -95 q-78 4 -88 4q-8 0 -24.5 0.5t-24.5 1.5q-16 1 -39 1q-10 12 -47 57q-5 7 -21.5 27t-24.5 30q-21 25 -30 38q-12 14 -35.5 43t-34.5 43z" />
<glyph unicode="&#xda;" horiz-adv-x="1523" d="M291 441q0 55 7 127q45 448 45 827v69l22 19q107 -14 193 -20q-7 -323 -41 -740q-5 -58 -5 -104q0 -139 51 -215h-1q35 -51 107 -72q58 -17 138 -17q79 0 141 19q77 23 120 72q47 63 73 153q20 70 29 169q13 130 19 182q15 159 45 375q12 93 27 180q81 6 144 13l76 7 q-78 -394 -118 -921q-9 -126 -37 -217q-35 -116 -111 -197q-87 -82 -207 -115q-96 -26 -223 -26t-215 23q-115 30 -182 101q-52 59 -77 147q-20 69 -20 161zM528 1597q48 50 90 98q43 50 67 81v-1q68 82 73 88l14 7q28 0 47 1q10 1 29 1t28 1q69 2 104 6q-55 -50 -102 -97 q-25 -25 -35 -36q-34 -37 -81 -87l-53 -53q-34 -2 -57 -2q-16 0 -27 -1q-6 -1 -17.5 -1.5t-17.5 -0.5q-27 -1 -62 -4z" />
<glyph unicode="&#xdb;" horiz-adv-x="1523" d="M291 441q0 55 7 127q45 448 45 827v69l22 19q107 -14 193 -20q-7 -323 -41 -740q-5 -58 -5 -104q0 -139 51 -215h-1q35 -51 107 -72q58 -17 138 -17q79 0 141 19q77 23 120 72q47 63 73 153q20 70 29 169q13 130 19 182q15 159 45 375q12 93 27 180q81 6 144 13l76 7 q-78 -394 -118 -921q-9 -126 -37 -217q-35 -116 -111 -197q-87 -82 -207 -115q-96 -26 -223 -26t-215 23q-115 30 -182 101q-52 59 -77 147q-20 69 -20 161zM472 1501q72 63 123 118q19 21 85 99h-1l44 54h192l30 -48v1q39 -66 70 -105q46 -62 106 -119h-17q-17 0 -26 1h-26 h-17q-48 2 -81 2q-52 47 -120 134v1q-6 7 -12 13q-4 4 -11 14l-16 -16q-106 -106 -155 -146q-31 0 -79 -2h-17h-27q-10 -1 -27 -1h-18z" />
<glyph unicode="&#xdc;" horiz-adv-x="1523" d="M291 441q0 55 7 127q45 448 45 827v69l22 19q107 -14 193 -20q-7 -323 -41 -740q-5 -58 -5 -104q0 -139 51 -215h-1q35 -51 107 -72q58 -17 138 -17q79 0 141 19q77 23 120 72q47 63 73 153q20 70 29 169q13 130 19 182q15 159 45 375q12 93 27 180q81 6 144 13l76 7 q-78 -394 -118 -921q-9 -126 -37 -217q-35 -116 -111 -197q-87 -82 -207 -115q-96 -26 -223 -26t-215 23q-115 30 -182 101q-52 59 -77 147q-20 69 -20 161zM567 1531q38 72 38 129q0 33 -10 63l20 25q60 -2 97 -2q16 0 48.5 -0.5t47.5 -1.5v-36q0 -6 1 -8v-7 q0 -69 -19 -158h-37q-16 -1 -38 -1h-33q-13 -1 -40 -1q-14 -1 -40 -1q-13 -1 -35 -1zM955 1596q0 67 17 134l18 14q31 0 105 2q9 0 27.5 1t28.5 1q34 0 49 1q-40 -82 -40 -130q0 -30 20 -88q-21 0 -34 1q-25 0 -38 1q-26 0 -39 1h-34q-23 0 -39 1h-39q-2 26 -2 61z" />
<glyph unicode="&#xdd;" horiz-adv-x="1544" d="M342 1456l19 28q72 -9 198 -19q88 -172 173 -354q41 -88 162 -360q291 472 460 717q91 5 159 12l79 7q-119 -174 -257 -402q-135 -223 -243 -411q-7 -12 -21.5 -37t-22.5 -38q-15 -25 -43 -75q-15 -161 -34 -489q-70 2 -124 2h-70h-21h-25q-9 -1 -25 -1h-22 q21 203 25 244q13 120 24 244q-220 555 -328 796q-32 70 -63 136zM732 1497q48 50 90 98q43 50 67 81v-1q68 82 73 88l14 7q28 0 47 1q10 1 29 1t28 1q69 2 104 6q-55 -50 -102 -97q-25 -25 -35 -36q-34 -37 -81 -87l-53 -53q-34 -2 -57 -2q-16 0 -27 -1q-6 -1 -17.5 -1.5 t-17.5 -0.5q-27 -1 -62 -4z" />
<glyph unicode="&#xde;" horiz-adv-x="1320" d="M213 6q123 735 131 1459l22 19q112 -17 193 -20q0 -12 -1.5 -44t-2.5 -51q-4 -77 -5 -94q0 -5 -0.5 -15.5t-1.5 -15.5q-1 -9 -1 -33q95 -5 227 -5q101 -2 167 -15q90 -18 153 -61q64 -50 96 -131q26 -67 26 -152q0 -109 -30 -202q-38 -116 -112 -181q-76 -63 -182 -90 q-80 -20 -190 -20q-117 0 -228 -4q-5 -46 -19 -162q-8 -56 -11 -83q-2 -16 -10 -77l-76 -6q-17 -2 -34 -3q-6 -1 -18.5 -2.5t-19.5 -1.5q-56 -6 -73 -9zM493 528q74 2 112 2h110q122 0 189 57q54 44 77 112q18 51 18 121q0 113 -78 167q-62 43 -159 43q-150 0 -226 4 q-6 -86 -9 -127q0 -7 -21 -250q-9 -90 -13 -129zM517 1035q3 -1 10 -1h9l2 20z" />
<glyph unicode="&#xdf;" horiz-adv-x="1360" d="M100 7q109 485 176 1106v-1q5 90 32 160q32 84 95 135q69 56 164 77q77 17 178 17q88 0 153 -20q78 -24 132 -74q82 -105 82 -255q0 -39 -5 -87q-114 -9 -203 -57q-109 -59 -109 -160q0 -45 38 -86q24 -27 75 -61v1q10 -6 15 -10q7 -8 15 -12q110 -82 149 -130 q70 -87 70 -195q0 -91 -29 -161q-35 -85 -110 -126q-71 -37 -150 -50q-55 -9 -143 -9q-125 4 -271 44q5 64 12 121l15 130q157 -57 286 -57q79 0 127 19q71 27 71 86q0 52 -42 99q-23 25 -87 69q-36 30 -70 52q-53 79 -70 114q-33 64 -33 129q0 138 78 233q44 49 117 78 q48 18 132 35q-45 135 -102 184q-61 30 -161 30q-123 0 -187 -60v1q-66 -69 -91 -218v4q-13 -554 -58 -1071q-16 -1 -66 -4.5t-79 -5.5q-49 -4 -77 -7q-17 -2 -69 -7z" />
<glyph unicode="&#xe0;" horiz-adv-x="1458" d="M309 276q0 113 44 207q52 111 149 159q132 64 312 64h113q71 0 112 1v7q0 6 1 9q0 4 2 22v14q0 83 -47 134q-77 61 -212 74q-176 0 -353 -82q0 10 1 18q0 15 1 23q0 16 1 24v17q0 44 4 83q208 64 375 64q104 0 175 -19q90 -24 151 -82q87 -102 87 -272q0 -38 -6 -108 q-29 -267 -29 -517q0 -51 2 -109q-23 3 -98 9q-48 4 -98 6l2 76v19v8v8q0 10 1 20q-73 -80 -177 -118q-91 -33 -207 -33q-159 0 -241 82q-65 71 -65 192zM378 1627q9 -1 102 -6q74 -4 103 -4l16 -7q32 -46 47 -69q61 -98 117 -180q33 -49 94 -123q-24 1 -59 3q-44 2 -67 3 q-11 0 -33 0.5t-33 1.5q-22 1 -59 1h-44q-14 30 -29 64t-29 64q-32 74 -51 114q-40 80 -75 138zM478 381q1 -31 14.5 -54.5t39.5 -29.5q70 -14 137 -14q56 0 100 8q58 11 94 35q32 32 44 75.5t19 108.5l3 24q0 2 0.5 5t1 5t0.5 3q0 7 1 14h-138h-12q-4 -1 -13 -1t-28 -1 t-28 -1q-58 -2 -112 -18q-23 -7 -51 -22h1q-64 -44 -73 -137z" />
<glyph unicode="&#xe1;" horiz-adv-x="1321" d="M172 276q0 113 44 207q52 111 149 159q132 64 312 64h113q71 0 112 1v7q0 6 1 9q0 4 2 22v14q0 83 -47 134q-77 61 -212 74q-176 0 -353 -82q0 10 1 18q0 15 1 23q0 16 1 24v17q0 44 4 83q208 64 375 64q104 0 175 -19q90 -24 151 -82q87 -102 87 -272q0 -38 -6 -108 q-29 -267 -29 -517q0 -51 2 -109q-23 3 -98 9q-48 4 -98 6l2 76v19v8v8q0 10 1 20q-73 -80 -177 -118q-91 -33 -207 -33q-159 0 -241 82q-65 71 -65 192zM286 1195q33 35 113 125q23 26 108 128q74 92 136 162l14 6q14 0 56 2q31 2 66 3q90 4 122 7q-47 -43 -120 -116 q-10 -11 -31 -32t-31 -32q-30 -32 -54 -57q-108 -118 -181 -187q-44 0 -99 -3q-29 -1 -54 -3q-27 -2 -45 -3zM341 381q1 -31 14.5 -54.5t39.5 -29.5q70 -14 137 -14q56 0 100 8q58 11 94 35q32 32 44 75.5t19 108.5l3 24q0 2 0.5 5t1 5t0.5 3q0 7 1 14h-138h-12 q-4 -1 -13 -1t-28 -1t-28 -1q-58 -2 -112 -18q-23 -7 -51 -22h1q-64 -44 -73 -137z" />
<glyph unicode="&#xe2;" horiz-adv-x="1380" d="M231 276q0 113 44 207q52 111 149 159q132 64 312 64h113q71 0 112 1v7q0 6 1 9q0 4 2 22v14q0 83 -47 134q-77 61 -212 74q-176 0 -353 -82q0 10 1 18q0 15 1 23q0 16 1 24v17q0 44 4 83q208 64 375 64q104 0 175 -19q90 -24 151 -82q87 -102 87 -272q0 -38 -6 -108 q-29 -267 -29 -517q0 -51 2 -109q-23 3 -98 9q-48 4 -98 6l2 76v19v8v8q0 10 1 20q-73 -80 -177 -118q-91 -33 -207 -33q-159 0 -241 82q-65 71 -65 192zM296 1239q69 72 123 142q30 39 86 120q3 5 18 25.5t24 32.5q11 16 41 58h157l39 -77q39 -79 78 -144q47 -79 108 -157 l-99 2l-65 2q-54 67 -135 196l-17 28l-27 -34h1q-116 -139 -165 -190l-65 -2zM400 381q1 -31 14.5 -54.5t39.5 -29.5q70 -14 137 -14q56 0 100 8q58 11 94 35q32 32 44 75.5t19 108.5l3 24q0 2 0.5 5t1 5t0.5 3q0 7 1 14h-138h-12q-4 -1 -13 -1q-10 0 -28 -1t-28 -1 q-58 -2 -112 -18q-23 -7 -51 -22h1q-64 -44 -73 -137z" />
<glyph unicode="&#xe3;" horiz-adv-x="1324" d="M175 276q0 113 44 207q52 111 149 159q132 64 312 64h113q71 0 112 1v7q0 6 1 9q0 4 2 22v14q0 83 -47 134q-77 61 -212 74q-176 0 -353 -82q0 10 1 18q0 15 1 23q0 16 1 24v17q0 44 4 83q208 64 375 64q104 0 175 -19q90 -24 151 -82q87 -102 87 -272q0 -38 -6 -108 q-29 -267 -29 -517q0 -51 2 -109q-23 3 -98 9q-48 4 -98 6l2 76v19v8v8q0 10 1 20q-73 -80 -177 -118q-91 -33 -207 -33q-159 0 -241 82q-65 71 -65 192zM284 1185q13 25 30 59q9 18 15 32l5 12q0 2 -1 2q-1 -1 -3 -1v1.5t2 5.5q16 45 32 78q23 47 62 74.5t82 27.5 q85 0 147 -62l49 -52q28 -29 51 -33q17 4 31 19.5t21.5 30.5t16.5 40q3 9 9 23l14 35q25 0 40 1h40h14q13 0 20 1h19h13q-7 -14 -11 -23t-12 -29q-15 -34 -23 -54v1q-37 -93 -64 -128q-44 -57 -115 -57q-88 0 -148 62l-46 51q-29 29 -54 33q-22 -5 -41 -35q-14 -20 -27 -57 v1q-7 -22 -22 -55q-51 -3 -62 -3h-19q-8 -1 -24 -1h-24h-17zM344 381q1 -31 14.5 -54.5t39.5 -29.5q70 -14 137 -14q56 0 100 8q58 11 94 35q32 32 44 75.5t19 108.5l3 24q0 2 0.5 5t1 5t0.5 3q0 7 1 14h-138h-12q-4 -1 -13 -1t-27.5 -1t-28.5 -1q-58 -2 -112 -18 q-23 -7 -51 -22h1q-64 -44 -73 -137z" />
<glyph unicode="&#xe4;" horiz-adv-x="1284" d="M135 276q0 113 44 207q52 111 149 159q132 64 312 64h113q71 0 112 1v7q0 6 1 9q0 4 2 22v14q0 83 -47 134q-77 61 -212 74q-176 0 -353 -82q0 10 1 18q0 15 1 23q0 16 1 24v17q0 44 4 83q208 64 375 64q104 0 175 -19q90 -24 151 -82q87 -102 87 -272q0 -38 -6 -108 q-29 -267 -29 -517q0 -51 2 -109q-23 3 -98 9q-48 4 -98 6l2 76v19v8v8q0 10 1 20q-73 -80 -177 -118q-91 -33 -207 -33q-159 0 -241 82q-65 71 -65 192zM304 381q1 -31 14.5 -54.5t39.5 -29.5q70 -14 137 -14q56 0 100 8q58 11 94 35q32 32 44 75.5t19 108.5l3 24 q0 2 0.5 5t1 5t0.5 3q0 7 1 14h-138h-12q-4 -1 -13 -1q-10 0 -28.5 -1t-27.5 -1q-58 -2 -112 -18q-23 -7 -51 -22h1q-64 -44 -73 -137zM304 1224q42 76 42 140q0 35 -9 68l19 25q64 -2 104 -2q18 0 52.5 -0.5t51.5 -1.5q2 -24 2 -57q0 -80 -18 -167q-33 0 -121 -2 q-23 -1 -66 -1q-10 0 -29 -0.5t-28 -1.5zM726 1293q0 67 19 145l17 15q64 2 97 2l130 2q-43 -84 -43 -139q0 -36 22 -93l-124 2q-18 0 -114 3q-4 29 -4 63z" />
<glyph unicode="&#xe5;" horiz-adv-x="1329" d="M180 276q0 113 44 207q52 111 149 159q132 64 312 64h113q71 0 112 1v7q0 6 1 9q0 4 2 22v14q0 83 -47 134q-77 61 -212 74q-176 0 -353 -82q0 10 1 18q0 15 1 23q0 16 1 24v17q0 44 4 83q208 64 375 64q104 0 175 -19q90 -24 151 -82q87 -102 87 -272q0 -38 -6 -108 q-29 -267 -29 -517q0 -51 2 -109q-23 3 -98 9q-48 4 -98 6l2 76v19v8v8q0 10 1 20q-73 -80 -177 -118q-91 -33 -207 -33q-159 0 -241 82q-65 71 -65 192zM349 381q1 -31 14.5 -54.5t39.5 -29.5q70 -14 137 -14q56 0 100 8q58 11 94 35q32 32 44 75.5t19 108.5l3 24 q0 2 0.5 5t1 5t0.5 3q0 7 1 14h-138h-12q-4 -1 -13 -1t-28 -1t-28 -1q-58 -2 -112 -18q-23 -7 -51 -22h1q-64 -44 -73 -137zM353 1472q0 126 78 210q81 88 210 88q99 0 168 -64q68 -65 68 -171v-17q-1 -5 -1 -15q-10 -118 -89 -192q-78 -75 -198 -75q-106 0 -170 64 q-66 66 -66 172zM486 1484q0 -51 32 -82t83 -31q55 0 95 40q36 36 47 94v6q0 3 1 4v4q0 50 -32 81.5t-84 33.5q-62 0 -102 -43t-40 -107z" />
<glyph unicode="&#xe6;" horiz-adv-x="2008" d="M143 255q0 44 6 83v-1q22 119 45 180q37 100 105 156q73 52 172 73q76 15 183 15h62q20 -1 61 -1h104q0 3 1 4v4q0 24 -11.5 51t-23 44t-32.5 44l1 -1q-75 83 -222 83q-173 0 -332 -83q0 20 -1 33q-1 7 -1.5 20.5t-0.5 20.5t-0.5 20.5t-1.5 20.5q-1 13 -1 32 q185 65 349 65q130 0 227 -35q117 -43 175 -135q85 88 207 132q111 39 237 39q95 0 168 -31q85 -36 129 -105l-1 1q73 -104 73 -253q0 -43 -7 -97q-2 -14 -3 -34q-1 -21 -3 -34q-512 -2 -765 -2q8 -115 82 -197q46 -46 122 -71q63 -22 144 -22q175 0 363 101v-13v-19 q-1 -7 -1 -19v-12v-30q0 -92 9 -185l-58 -21q-91 -35 -157 -54q-85 -24 -165 -24q-151 0 -270 50q-135 57 -204 168q-82 -108 -201 -164q-118 -56 -250 -56q-79 0 -138 17q-73 19 -118 66q-57 65 -57 176zM341 375q0 -56 54 -90q46 -31 111 -31q163 0 255 82q51 46 77 116 q22 61 29 137l2 18h-174q-3 0 -28 -1t-30.5 -1t-28 -1t-30.5 -2.5t-27.5 -3.5t-30.5 -4.5t-27 -6t-29.5 -8t-27.5 -10.5l1 1q-46 -21 -73 -85q-23 -53 -23 -110zM1062 716h58q284 0 515 4q1 5 1 13v11q0 105 -53 178q-60 80 -154 80q-157 0 -255 -99q-86 -86 -112 -187z M1633 705l19 16h-8q-3 -1 -9 -1z" />
<glyph unicode="&#xe7;" horiz-adv-x="1214" d="M155 469q0 139 34 260q41 150 133 240q81 76 212 115q106 32 231 32q143 0 272 -48l-17 -19l26 4q-3 -14 -10 -54q-1 -6 -4.5 -24.5t-5.5 -29.5v1l-8 -60q-142 72 -279 72q-80 0 -146 -24q-79 -28 -125 -84q-47 -52 -74 -140q-24 -72 -32 -155q0 -53 15 -100 q17 -51 51 -79h-1q43 -29 97 -40.5t133 -18.5h-1l146 -3h12q63 0 148 41q0 -10 -1.5 -42t-2.5 -51q-2 -68 -2 -94q0 -44 2 -114q-141 -53 -301 -53q-128 0 -223 29q-119 36 -185 119l1 -1q-50 60 -75 150q-20 73 -20 171zM270 -250q8 34 18 103l7 47q62 -33 133 -33h14 q3 -1 10 -1q37 0 67 23t30 60t-23 85q-12 25 -49 88h28q25 0 69 2h27l17 -7q76 -108 76 -197q0 -48 -20 -89q-23 -48 -64 -69q-67 -30 -173 -30q-77 0 -167 18z" />
<glyph unicode="&#xe8;" horiz-adv-x="1310" d="M152 472q0 132 38 256q45 147 129 238q74 75 185 114q96 32 209 34q99 -5 170 -26q93 -27 148 -82q49 -54 70 -136q15 -63 15 -156v-10q-1 -4 -1 -12v-22l-32 13l33 -14q-1 -7 -1 -18q0 -3 -0.5 -8.5t-1.5 -8.5v1l-5 -40q-161 -3 -497 -3q-46 0 -69 1h-70h-120v-5 q-2 -38 -2 -51q0 -63 14 -111q17 -58 56 -86v1q103 -65 284 -65h18q105 0 161 8q90 11 173 51v-32q-2 -50 -2 -76v-33q0 -87 3 -124q-198 -67 -409 -67q-120 9 -211 41q-115 38 -184 106q-52 61 -78 151q-23 79 -23 171zM383 761q65 -2 96 -1h96q193 0 383 3 q-11 105 -77 171q-71 69 -175 69q-146 0 -232 -82q-77 -68 -91 -160zM383 1627q9 -1 102 -6q74 -4 103 -4l16 -7q32 -46 47 -69q61 -98 117 -180q33 -49 94 -123q-24 1 -59 3q-44 2 -67 3q-11 0 -33 0.5t-33 1.5q-22 1 -59 1h-44q-14 30 -29 64t-29 64q-32 74 -51 114 q-40 80 -75 138zM958 763q2 -14 2 -20l19 20h-21z" />
<glyph unicode="&#xe9;" horiz-adv-x="1310" d="M152 472q0 132 38 256q45 147 129 238q74 75 185 114q96 32 209 34q99 -5 170 -26q93 -27 148 -82q49 -54 70 -136q15 -63 15 -156v-10q-1 -4 -1 -12v-22l-32 13l33 -14q-1 -7 -1 -18q0 -3 -0.5 -8.5t-1.5 -8.5v1l-5 -40q-161 -3 -497 -3q-46 0 -69 1h-70h-120v-5 q-2 -38 -2 -51q0 -63 14 -111q17 -58 56 -86v1q103 -65 284 -65h18q105 0 161 8q90 11 173 51v-32q-2 -50 -2 -76v-33q0 -87 3 -124q-198 -67 -409 -67q-120 9 -211 41q-115 38 -184 106q-52 61 -78 151q-23 79 -23 171zM328 1195q33 35 113 125q23 26 108 128 q74 92 136 162l14 6q14 0 56 2q31 2 66 3q90 4 122 7q-47 -43 -120 -116q-10 -11 -31 -32t-31 -32q-30 -32 -54 -57q-108 -118 -181 -187q-44 0 -99 -3q-29 -1 -54 -3q-27 -2 -45 -3zM383 761q65 -2 96 -1h96q193 0 383 3q-11 105 -77 171q-71 69 -175 69q-146 0 -232 -82 q-77 -68 -91 -160zM958 763q2 -14 2 -20l19 20h-21z" />
<glyph unicode="&#xea;" horiz-adv-x="1310" d="M152 472q0 132 38 256q45 147 129 238q74 75 185 114q96 32 209 34q99 -5 170 -26q93 -27 148 -82q49 -54 70 -136q15 -63 15 -156v-10q-1 -4 -1 -12v-22l-32 13l33 -14q-1 -7 -1 -18q0 -3 -0.5 -8.5t-1.5 -8.5v1l-5 -40q-161 -3 -497 -3q-46 0 -69 1h-70h-120v-5 q-2 -38 -2 -51q0 -63 14 -111q17 -58 56 -86v1q103 -65 284 -65h18q105 0 161 8q90 11 173 51v-32q-2 -50 -2 -76v-33q0 -87 3 -124q-198 -67 -409 -67q-120 9 -211 41q-115 38 -184 106q-52 61 -78 151q-23 79 -23 171zM279 1140q69 72 123 142q30 39 86 120q3 4 18 25 t24 33q11 16 41 58h157l39 -77q39 -79 78 -144q47 -79 108 -157l-99 2l-65 2q-54 67 -135 196l-17 28l-27 -34h1q-116 -139 -165 -190l-65 -2zM383 761q65 -2 96 -1h96q193 0 383 3q-11 105 -77 171q-71 69 -175 69q-146 0 -232 -82q-77 -68 -91 -160zM958 763q2 -14 2 -20 l19 20h-21z" />
<glyph unicode="&#xeb;" horiz-adv-x="1310" d="M152 472q0 132 38 256q45 147 129 238q74 75 185 114q96 32 209 34q99 -5 170 -26q93 -27 148 -82q49 -54 70 -136q15 -63 15 -156v-10q-1 -4 -1 -12v-22l-32 13l33 -14q-1 -7 -1 -18q0 -3 -0.5 -8.5t-1.5 -8.5v1l-5 -40q-161 -3 -497 -3q-46 0 -69 1h-70h-120v-5 q-2 -38 -2 -51q0 -63 14 -111q17 -58 56 -86v1q103 -65 284 -65h18q105 0 161 8q90 11 173 51v-32q-2 -50 -2 -76v-33q0 -87 3 -124q-198 -67 -409 -67q-120 9 -211 41q-115 38 -184 106q-52 61 -78 151q-23 79 -23 171zM382 1224q42 76 42 140q0 35 -9 68l19 25 q64 -2 104 -2q18 0 52.5 -0.5t51.5 -1.5q2 -24 2 -57q0 -80 -18 -167q-33 0 -121 -2q-23 -1 -66 -1q-10 0 -29 -0.5t-28 -1.5zM383 761q65 -2 96 -1h96q193 0 383 3q-11 105 -77 171q-71 69 -175 69q-146 0 -232 -82q-77 -68 -91 -160zM804 1293q0 67 19 145l17 15 q64 2 97 2l130 2q-43 -84 -43 -139q0 -36 22 -93l-124 2q-18 0 -114 3q-4 29 -4 63zM958 763q2 -14 2 -20l19 20h-21z" />
<glyph unicode="&#xec;" horiz-adv-x="1177" d="M378 1627q9 -1 102 -6q74 -4 103 -4l16 -7q32 -46 47 -69q61 -98 117 -180q33 -49 94 -123q-24 1 -59 3q-44 2 -67 3q-11 0 -33 0.5t-33 1.5q-22 1 -59 1h-44q-14 30 -29 64t-29 64q-32 74 -51 114q-40 80 -75 138zM709 -5q63 573 98 1097l30 15q28 -19 64 -19 q40 0 107 37q-30 -283 -55 -564q-30 -338 -45 -565q-55 34 -92 34q-39 0 -107 -35z" />
<glyph unicode="&#xed;" horiz-adv-x="1040" d="M286 1195q33 35 113 125q23 26 108 128q74 92 136 162l14 6q14 0 56 2q31 2 66 3q90 4 122 7q-47 -43 -120 -116q-10 -11 -31 -32t-31 -32q-30 -32 -54 -57q-108 -118 -181 -187q-44 0 -99 -3q-29 -1 -54 -3q-27 -2 -45 -3zM572 -5q63 573 98 1097l30 15q28 -19 64 -19 q40 0 107 37q-30 -283 -55 -564q-30 -338 -45 -565q-55 34 -92 34q-39 0 -107 -35z" />
<glyph unicode="&#xee;" horiz-adv-x="1099" d="M296 1239q69 72 123 142q30 39 86 120q3 5 18 25.5t24 32.5q11 16 41 58h157l39 -77q39 -79 78 -144q47 -79 108 -157l-99 2l-65 2q-54 67 -135 196l-17 28l-27 -34h1q-116 -139 -165 -190l-65 -2zM631 -5q63 573 98 1097l30 15q28 -19 64 -19q40 0 107 37 q-30 -283 -55 -564q-30 -338 -45 -565q-55 34 -92 34q-39 0 -107 -35z" />
<glyph unicode="&#xef;" horiz-adv-x="975" d="M319 1294q42 76 42 140q0 35 -9 68l19 25q64 -2 104 -2q18 0 52.5 -0.5t51.5 -1.5q2 -24 2 -57q0 -80 -18 -167q-33 0 -121 -2q-23 -1 -66 -1q-10 0 -29 -0.5t-28 -1.5zM451 -5q63 573 98 1097l30 15q28 -19 64 -19q40 0 107 37q-30 -283 -55 -564q-30 -338 -45 -565 q-55 34 -92 34q-39 0 -107 -35zM741 1363q0 67 19 145l17 15q64 2 97 2l130 2q-43 -84 -43 -139q0 -36 22 -93l-124 2q-18 0 -114 3q-4 29 -4 63z" />
<glyph unicode="&#xf0;" horiz-adv-x="1271" d="M151 447q0 127 38 251q43 140 128 232q64 69 160 108q90 36 185 36q11 -1 25 -1q9 0 33 -2q7 -1 23 -3l-43 55q-8 9 -34 43q-18 23 -35 43q-24 -7 -74 -23q-22 -7 -158 -46q-39 -10 -75 -21q-4 23 -18 67l-12 47q91 23 211 58l52 16q-31 37 -86 105q-8 10 -22.5 28 t-20.5 25q-32 39 -38 47q12 -1 122 -6q90 -4 123 -4q18 -22 28 -35t28 -35q24 -24 54 -64l15 5h-1q37 13 78 27q55 19 165 59q40 15 78 30l22 -110q-116 -48 -285 -107l65 -84l60 -75q171 -213 171 -499q0 -133 -33 -244q-40 -134 -123 -223q-74 -69 -173 -104 q-94 -33 -195 -33q-105 0 -192 32q-96 35 -158 105q-88 110 -88 300zM348 466q0 -118 52 -197q60 -95 209 -93q58 0 113.5 25t94.5 70q49 66 76 172q22 85 22 181q0 169 -63 263q-84 29 -163 29q-65 0 -126 -25t-104 -72q-60 -67 -88 -169q-23 -84 -23 -184zM846 892l5 -5v1 z" />
<glyph unicode="&#xf1;" horiz-adv-x="1406" d="M141 7q121 536 129 1113q23 -3 98 -9q8 -1 25.5 -2t26.5 -2q26 -1 45 -3l-2 -88v-11q-1 -1 -1 -3q-1 -1 -1 -4v-11q185 129 368 129q83 0 154 -31q76 -34 112 -103q45 -100 45 -239q0 -25 -2 -73q-13 -190 -13 -349q0 -145 15 -313q-23 2 -73 6t-63 5q-97 6 -138 7 q20 278 76 649v10q0 7 1 10v-1q4 31 4 68q0 72 -22 122v-1q-20 37 -62 57q-34 15 -81 15q-72 0 -128 -16q-71 -22 -113 -67q-76 -82 -89 -237v1q-11 -304 -43 -610q-8 0 -29 -1.5t-34 -2.5q-26 -2 -76 -5t-66 -4q-34 -3 -63 -6zM348 1185q13 25 30 59q9 18 15 32l5 12 q0 2 -1 2q-1 -1 -3 -1v1.5t2 5.5q16 45 32 78q23 47 62 74.5t82 27.5q85 0 147 -62l49 -52q28 -29 51 -33q17 4 31 19.5t21.5 30.5t16.5 40q3 9 9 23l14 35q25 0 40 1h40h14q13 0 20 1h19h13q-7 -14 -11 -23t-12 -29q-15 -34 -23 -54v1q-37 -93 -64 -128q-44 -57 -115 -57 q-88 0 -148 62l-46 51q-29 29 -54 33q-22 -5 -41 -35q-14 -20 -27 -57v1q-7 -22 -22 -55q-51 -3 -62 -3h-19q-8 -1 -24 -1h-24h-17z" />
<glyph unicode="&#xf2;" horiz-adv-x="1297" d="M185 455q0 145 30 265q39 158 124 253q71 70 176 107q96 34 198 34q111 0 194 -30q98 -36 154 -113q83 -115 83 -306q0 -142 -31 -266q-38 -153 -124 -254q-69 -75 -175 -110q-96 -32 -201 -32q-107 0 -192 31q-103 37 -153 112v-1q-83 114 -83 310zM378 1627 q9 -1 102 -6q74 -4 103 -4l16 -7q32 -46 47 -69q61 -98 117 -180q33 -49 94 -123q-24 1 -59 3q-44 2 -67 3q-11 0 -33 0.5t-33 1.5q-22 1 -59 1h-44q-14 30 -29 64t-29 64q-32 74 -51 114q-40 80 -75 138zM385 513q0 -110 53 -151l-1 1q69 -45 205 -45q132 0 212 46h-1 q59 41 82 140q13 60 13 150q0 132 -49 215q-28 47 -81 72t-116 26q-64 0 -122 -25t-96 -74q-53 -68 -79 -172q-20 -76 -20 -183z" />
<glyph unicode="&#xf3;" horiz-adv-x="1268" d="M156 455q0 145 30 265q39 158 124 253q71 70 176 107q96 34 198 34q111 0 194 -30q98 -36 154 -113q83 -115 83 -306q0 -142 -31 -266q-38 -153 -124 -254q-69 -75 -175 -110q-96 -32 -201 -32q-107 0 -192 31q-103 37 -153 112v-1q-83 114 -83 310zM293 1195 q33 35 113 125q23 26 108 128q74 92 136 162l14 6q14 0 56 2q32 2 66 3q90 4 122 7q-47 -43 -120 -116q-10 -11 -31 -32t-31 -32q-30 -32 -54 -57q-108 -118 -181 -187q-43 0 -99 -3q-28 -1 -54 -3q-27 -2 -45 -3zM356 513q0 -110 53 -151l-1 1q69 -45 205 -45q132 0 212 46 h-1q59 41 82 140q13 60 13 150q0 132 -49 215q-28 47 -81 72t-116 26q-64 0 -122 -25t-96 -74q-53 -68 -79 -172q-20 -76 -20 -183z" />
<glyph unicode="&#xf4;" horiz-adv-x="1268" d="M156 455q0 145 30 265q39 158 124 253q71 70 176 107q96 34 198 34q111 0 194 -30q98 -36 154 -113q83 -115 83 -306q0 -142 -31 -266q-38 -153 -124 -254q-69 -75 -175 -110q-96 -32 -201 -32q-107 0 -192 31q-103 37 -153 112v-1q-83 114 -83 310zM345 1239 q69 72 123 142q30 39 86 120q3 5 18 25.5t24 32.5q11 16 41 58h157l39 -77q39 -79 78 -144q47 -79 108 -157l-99 2l-65 2q-54 67 -135 196l-17 28l-27 -34h1q-116 -139 -165 -190l-65 -2zM356 513q0 -110 53 -151l-1 1q69 -45 205 -45q132 0 212 46h-1q59 41 82 140 q13 60 13 150q0 132 -49 215q-28 47 -81 72t-116 26q-64 0 -122 -25t-96 -74q-53 -68 -79 -172q-20 -76 -20 -183z" />
<glyph unicode="&#xf5;" horiz-adv-x="1268" d="M156 455q0 145 30 265q39 158 124 253q71 70 176 107q96 34 198 34q111 0 194 -30q98 -36 154 -113q83 -115 83 -306q0 -142 -31 -266q-38 -153 -124 -254q-69 -75 -175 -110q-96 -32 -201 -32q-107 0 -192 31q-103 37 -153 112v-1q-83 114 -83 310zM356 513 q0 -110 53 -151l-1 1q69 -45 205 -45q132 0 212 46h-1q59 41 82 140q13 60 13 150q0 132 -49 215q-28 47 -81 72t-116 26q-64 0 -122 -25t-96 -74q-53 -68 -79 -172q-20 -76 -20 -183zM388 1185q13 25 30 59q9 18 15 32l5 12q0 2 -1 2q-1 -1 -3 -1v1.5t2 5.5q16 45 32 78 q23 47 62 74.5t82 27.5q85 0 147 -62l49 -52q28 -29 51 -33q17 4 31 19.5t21.5 30.5t16.5 40q3 9 9 23l14 35q25 0 40 1h40h14q13 0 20 1h19h13q-7 -14 -11 -23t-12 -29q-15 -34 -23 -54v1q-37 -93 -64 -128q-44 -57 -115 -57q-88 0 -148 62l-46 51q-29 29 -54 33 q-22 -5 -41 -35q-14 -20 -27 -57v1q-7 -22 -22 -55q-51 -3 -62 -3h-19q-8 -1 -24 -1h-24h-17z" />
<glyph unicode="&#xf6;" horiz-adv-x="1268" d="M156 455q0 145 30 265q39 158 124 253q71 70 176 107q96 34 198 34q111 0 194 -30q98 -36 154 -113q83 -115 83 -306q0 -142 -31 -266q-38 -153 -124 -254q-69 -75 -175 -110q-96 -32 -201 -32q-107 0 -192 31q-103 37 -153 112v-1q-83 114 -83 310zM356 513 q0 -110 53 -151l-1 1q69 -45 205 -45q132 0 212 46h-1q59 41 82 140q13 60 13 150q0 132 -49 215q-28 47 -81 72t-116 26q-64 0 -122 -25t-96 -74q-53 -68 -79 -172q-20 -76 -20 -183zM448 1125q42 76 42 140q0 35 -9 68l19 25q64 -2 104 -2q18 0 52.5 -0.5t51.5 -1.5 q2 -24 2 -57q0 -80 -18 -167q-33 0 -121 -2q-23 -1 -66 -1q-10 0 -29 -0.5t-28 -1.5zM870 1194q0 67 19 145l17 15q64 2 97 2l130 2q-43 -84 -43 -139q0 -36 22 -93l-124 2q-18 0 -114 3q-4 29 -4 63z" />
<glyph unicode="&#xf7;" horiz-adv-x="1565" d="M167 503q0 5 4 45t6 63q1 13 3.5 51t4.5 57l20 18q234 -5 557 -5q302 0 662 5q-4 -31 -5 -54q-1 -10 -3 -30.5t-3 -31.5q-8 -84 -9 -117q-168 3 -522 3q-406 0 -715 -4zM592 78l18 150l14 129l20 18q21 0 32 1h32h63h33q10 -1 32 -1h85q-4 -43 -10 -149q-7 -87 -8 -149 q-78 2 -132 2h-39q-13 -1 -40 -1h-100zM668 864q11 131 19 280l20 19q19 -1 57 -1h56h43h47q31 0 46 1h42q-4 -29 -9 -71q-6 -52 -9 -79q-4 -41 -9 -78q-7 -61 -8 -71q-21 -1 -73 -1h-73h-35h-39q-26 0 -39 1h-36z" />
<glyph unicode="&#xf8;" horiz-adv-x="1267" d="M44 4q27 29 58 61q7 8 27 29.5t29 31.5l57 63q-58 111 -58 277q0 141 31 261q40 154 124 246q67 67 176 107q93 33 200 33q177 0 285 -85l67 70q16 17 52 56t39 42q18 -15 60 -51h-1l37 -32q-39 -42 -57 -61q-45 -50 -57 -62v1q-17 -18 -27 -30q-2 -3 -28 -31 q56 -116 56 -275q0 -142 -32 -262q-41 -153 -124 -247q-67 -72 -172 -110q-93 -33 -197 -33q-182 0 -291 87q-22 -25 -46 -49q-65 -67 -80 -84q-26 -28 -33 -35l-41 36q-8 6 -27 23t-27 23zM351 475q0 -76 13 -123q68 76 101 113q16 19 49.5 56t50.5 56q101 115 276 308 q-66 63 -177 63q-57 0 -115 -28q-60 -29 -97 -75q-54 -73 -79 -181q-22 -89 -22 -189zM429 231q63 -63 176 -63q61 0 117.5 26.5t91.5 75.5q58 69 85 186q19 85 19 195q0 66 -14 112q-70 -76 -103 -114q-37 -43 -103 -116q-7 -8 -58 -65.5t-76 -85.5q-49 -56 -135 -151z M841 885l11 -12v25zM899 782l3 -12q2 -6 2 -7l5 7h4q1 -1 4 -1l-5 3l4 5l-7 -3z" />
<glyph unicode="&#xf9;" horiz-adv-x="1353" d="M234 346q0 47 5 102q31 290 31 557v22q-1 7 -1 21v66q3 -1 10 -1.5t11 -0.5q16 -2 25 -3q4 -1 12.5 -2t13.5 -1q12 -2 21 -3l73 -6q-5 -250 -23 -494v-14v-9q-1 -3 -1 -9q0 -106 32 -173l-1 1q45 -80 147 -80q140 0 220 85v-1q79 88 102 238v-1q18 170 67 456q48 1 116 8 q82 6 115 10q-121 -559 -122 -1104q-19 2 -45 3q-62 6 -106 8q-8 0 -23 0.5t-22 1.5q9 119 11 137q-64 -74 -150.5 -116.5t-178.5 -42.5h-26q-88 0 -157 30q-80 33 -116 102q-40 93 -40 213zM359 1528q9 -1 102 -6q74 -4 103 -4l16 -7q32 -46 47 -69q61 -98 117 -180 q33 -49 94 -123q-24 1 -59 3q-44 2 -67 3q-11 0 -33 0.5t-33 1.5q-22 1 -59 1h-44q-14 30 -29 64t-29 64q-32 74 -51 114q-40 80 -75 138z" />
<glyph unicode="&#xfa;" horiz-adv-x="1353" d="M234 346q0 47 5 102q31 290 31 557v22q-1 7 -1 21v66q3 -1 10 -1.5t11 -0.5q16 -2 25 -3q4 -1 12.5 -2t13.5 -1q12 -2 21 -3l73 -6q-5 -250 -23 -494v-14v-9q-1 -3 -1 -9q0 -106 32 -173l-1 1q45 -80 147 -80q140 0 220 85v-1q79 88 102 238v-1q18 170 67 456q48 1 116 8 q82 6 115 10q-121 -559 -122 -1104q-19 2 -45 3q-62 6 -106 8q-8 0 -23 0.5t-22 1.5q9 119 11 137q-64 -74 -150.5 -116.5t-178.5 -42.5h-26q-88 0 -157 30q-80 33 -116 102q-40 93 -40 213zM304 1195q33 35 113 125q23 26 108 128q74 92 136 162l14 6q14 0 56 2q31 2 66 3 q90 4 122 7q-47 -43 -120 -116q-10 -11 -31 -32t-31 -32q-30 -32 -54 -57q-108 -118 -181 -187q-44 0 -99 -3q-29 -1 -54 -3q-27 -2 -45 -3z" />
<glyph unicode="&#xfb;" horiz-adv-x="1394" d="M275 346q0 47 5 102q31 290 31 557v22q-1 7 -1 21v66q3 -1 10 -1.5t11 -0.5q16 -2 25 -3q4 -1 13 -2t13 -1q12 -2 21 -3l73 -6q-5 -250 -23 -494v-14v-9q-1 -3 -1 -9q0 -106 32 -173l-1 1q45 -80 147 -80q140 0 220 85v-1q79 88 102 238v-1q18 170 67 456q48 1 116 8 q82 6 115 10q-121 -559 -122 -1104q-20 2 -45 3q-62 6 -106 8q-8 0 -23 0.5t-22 1.5q9 119 11 137q-64 -74 -150.5 -116.5t-178.5 -42.5h-26q-88 0 -157 30q-80 33 -116 102q-40 93 -40 213zM296 1239q69 72 123 142q30 39 86 120q3 5 18 25.5t24 32.5q11 16 41 58h157 l39 -77q39 -79 78 -144q47 -79 108 -157l-99 2l-65 2q-54 67 -135 196l-17 28l-27 -34h1q-116 -139 -165 -190l-65 -2z" />
<glyph unicode="&#xfc;" horiz-adv-x="1353" d="M234 346q0 47 5 102q31 290 31 557v22q-1 7 -1 21v66q3 -1 10 -1.5t11 -0.5q16 -2 25 -3q4 -1 12.5 -2t13.5 -1q12 -2 21 -3l73 -6q-5 -250 -23 -494v-14v-9q-1 -3 -1 -9q0 -106 32 -173l-1 1q45 -80 147 -80q140 0 220 85v-1q79 88 102 238v-1q18 170 67 456q48 1 116 8 q82 6 115 10q-121 -559 -122 -1104q-19 2 -45 3q-62 6 -106 8q-8 0 -23 0.5t-22 1.5q9 119 11 137q-64 -74 -150.5 -116.5t-178.5 -42.5h-26q-88 0 -157 30q-80 33 -116 102q-40 93 -40 213zM459 1224q42 76 42 140q0 35 -9 68l19 25q64 -2 104 -2q18 0 52.5 -0.5t51.5 -1.5 q2 -24 2 -57q0 -80 -18 -167q-33 0 -121 -2q-23 -1 -66 -1q-10 0 -29 -0.5t-28 -1.5zM881 1293q0 67 19 145l17 15q64 2 97 2l130 2q-43 -84 -43 -139q0 -36 22 -93l-124 2q-18 0 -114 3q-4 29 -4 63z" />
<glyph unicode="&#xfd;" horiz-adv-x="1391" d="M198 -418q4 21 14 77l11 77q1 8 4 26l4 24q8 49 8 51q12 1 37 3q6 0 18.5 0.5t17.5 1.5q41 2 61 4t50.5 11t52.5 25l-1 -1q34 29 95 93q33 60 65 111l19 33l-27 73q-134 358 -175 465q-102 267 -183 459q48 -7 104 -13q76 -10 104 -11q146 -267 164 -300 q104 -198 157 -303q207 377 345 604q28 1 108 11q40 4 59 6q30 3 50 6q-173 -317 -452 -921l-122 -263q-46 -88 -83 -142q-56 -79 -115 -124q-57 -40 -137 -57q-48 -10 -146 -16q-4 -1 -12.5 -1.5t-12.5 -0.5q-21 -1 -58 -5q-14 -1 -24 -3zM366 1195q33 35 113 125 q23 26 108 128q74 92 136 162l14 6q14 0 56 2q31 2 66 3q90 4 122 7q-47 -43 -120 -116q-10 -11 -31 -32t-31 -32q-30 -32 -54 -57q-108 -118 -181 -187q-44 0 -99 -3q-29 -1 -54 -3q-27 -2 -45 -3z" />
<glyph unicode="&#xfe;" horiz-adv-x="1387" d="M188 -404q145 949 171 1939q1 0 45 -8q9 -2 26.5 -4.5t25.5 -3.5q56 -9 98 -14q-3 -44 -7 -142q-4 -84 -14 -264q-7 -102 -10 -142q61 70 145 111.5t172 41.5h26q88 0 164 -38t121 -107q82 -124 82 -315q0 -141 -31 -258q-38 -144 -122 -242h1q-60 -72 -140 -109 q-82 -38 -171 -38h-26q-94 0 -170 36q-80 38 -121 112q-40 -353 -64 -531q-72 -5 -145 -17q-9 -2 -56 -7zM486 479q0 -133 51 -215q51 -98 196 -98q140 0 224 131q66 105 79 263q4 33 4 76q0 136 -58 219q-66 92 -192 92q-58 0 -111.5 -26.5t-89.5 -74.5q-55 -72 -82 -179 q-21 -84 -21 -188z" />
<glyph unicode="&#xff;" horiz-adv-x="1391" d="M198 -418q4 21 14 77l11 77q1 8 4 26l4 24q8 49 8 51q12 1 37 3q6 0 18.5 0.5t17.5 1.5q41 2 61 4t50.5 11t52.5 25l-1 -1q34 29 95 93q33 60 65 111l19 33l-27 73q-134 358 -175 465q-102 267 -183 459q48 -7 104 -13q76 -10 104 -11q146 -267 164 -300 q104 -198 157 -303q207 377 345 604q28 1 108 11q40 4 59 6q30 3 50 6q-173 -317 -452 -921l-122 -263q-46 -88 -83 -142q-56 -79 -115 -124q-57 -40 -137 -57q-48 -10 -146 -16q-4 -1 -12.5 -1.5t-12.5 -0.5q-21 -1 -58 -5q-14 -1 -24 -3zM521 1224q42 76 42 140 q0 35 -9 68l19 25q64 -2 104 -2q18 0 52.5 -0.5t51.5 -1.5q2 -24 2 -57q0 -80 -18 -167q-33 0 -121 -2q-23 -1 -66 -1q-10 0 -29 -0.5t-28 -1.5zM943 1293q0 67 19 145l17 15q64 2 97 2l130 2q-43 -84 -43 -139q0 -36 22 -93l-124 2q-18 0 -114 3q-4 29 -4 63z" />
<glyph unicode="&#x152;" horiz-adv-x="2264" d="M198 633q0 184 42 335q55 196 178 306q143 116 352 157q128 24 362 24q523 0 951 28l19 -24q-8 -29 -15 -61q-3 -13 -7.5 -33.5t-6.5 -27.5q-302 -19 -712 -24q-7 -60 -20 -183q-1 -15 -4.5 -45t-5.5 -45q-5 -50 -9 -94q108 0 165 1q28 1 85 1t86 1q192 0 335 4 q-4 -23 -5 -41q-4 -32 -6 -49q-4 -34 -5 -50q-5 -36 -5 -42l-666 -3q-2 -21 -5.5 -59.5t-4.5 -54.5q-11 -111 -18 -220q-3 -37 -7 -115q479 -6 706 -17q5 -165 21 -294q-432 29 -1047 29q-187 0 -319 28q-175 37 -283 132q-83 81 -120 203q-31 101 -31 233zM414 709 q0 -151 111 -262q71 -71 195 -103q93 -24 229 -24h112q13 168 43 496q3 36 10.5 118.5t11.5 127.5q5 60 23 250h-112q-129 0 -237 -26q-133 -33 -219 -102q-79 -73 -121 -204q-31 -96 -44 -234q-2 -24 -2 -37z" />
<glyph unicode="&#x153;" horiz-adv-x="2090" d="M159 435q0 158 24 273q35 167 116 268q63 77 157 111q83 31 185 31q130 0 233 -48q114 -53 172 -154q87 99 219 153q122 50 257 50q93 0 171 -31q83 -34 129 -104q36 -55 54 -98q25 -60 25 -113v-14q-1 -5 -1 -14v-1l-3 -18q0 -3 -0.5 -9.5t-1.5 -9.5l-6 -55 q-428 -5 -766 -5v-22q-2 -32 -2 -55v-33q0 -82 13 -138q17 -73 58 -116l-3 2q91 -65 267 -65q186 0 370 97v-53q0 -87 11 -194q-189 -73 -371 -73q-154 0 -268 43q-134 51 -209 158q-82 -102 -202 -151q-116 -49 -245 -49q-102 0 -178 33q-91 37 -135 113v-1 q-70 106 -70 292zM361 548q0 -123 47 -201q27 -44 75 -67t105 -23q146 0 233 97q52 62 79 148q24 81 24 160q0 126 -58 219l1 -1q-77 99 -207 99h-10q-132 0 -202 -93q-51 -66 -71 -164q-16 -74 -16 -174zM1145 790q258 0 467 4l104 1q0 26 -16 67q-10 25 -33 61 q-29 36 -74 56t-94 20q-153 0 -250 -83q-78 -69 -104 -126zM1715 780l19 16l-18 -1v-6q0 -6 -1 -9z" />
<glyph unicode="&#x178;" horiz-adv-x="1544" d="M342 1456l19 28q72 -9 198 -19q88 -172 173 -354q41 -88 162 -360q291 472 460 717q91 5 159 12l79 7q-119 -174 -257 -402q-135 -223 -243 -411q-7 -12 -21.5 -37t-22.5 -38q-15 -25 -43 -75q-15 -161 -34 -489q-70 2 -124 2h-70h-21h-25q-9 -1 -25 -1h-22 q21 203 25 244q13 120 24 244q-220 555 -328 796q-32 70 -63 136zM671 1631q38 72 38 129q0 33 -10 63l20 25q60 -2 97 -2q16 0 48.5 -0.5t47.5 -1.5v-36q0 -6 1 -8v-7q0 -69 -19 -158h-37q-16 -1 -38 -1h-33q-13 -1 -40 -1q-14 -1 -40 -1q-13 -1 -35 -1zM1059 1696 q0 67 17 134l18 14q31 0 105 2q10 0 28 1t28 1q34 0 49 1q-40 -82 -40 -130q0 -30 20 -88q-21 0 -34 1q-25 0 -38 1q-26 0 -39 1h-34q-23 0 -39 1h-39q-2 26 -2 61z" />
<glyph unicode="&#x2c6;" horiz-adv-x="974" d="M296 1239q69 72 123 142q30 39 86 120q3 5 18 25.5t24 32.5q11 16 41 58h157l39 -77q39 -79 78 -144q47 -79 108 -157l-99 2l-65 2q-54 67 -135 196l-17 28l-27 -34h1q-116 -139 -165 -190l-65 -2z" />
<glyph unicode="&#x2dc;" horiz-adv-x="946" d="M305 1284q13 25 30 59q9 18 15 32l5 12q0 2 -1 2q-1 -1 -3 -1v1.5t2 5.5q16 45 32 78q23 47 62 74.5t82 27.5q85 0 147 -62l49 -52q28 -29 51 -33q17 4 31 19.5t21.5 30.5t16.5 40q3 9 9 23l14 35q25 0 40 1h40h14q13 0 20 1h19h13q-7 -14 -11 -23t-12 -29 q-15 -34 -23 -54v1q-37 -93 -64 -128q-44 -57 -115 -57q-88 0 -148 62l-46 51q-29 29 -54 33q-22 -5 -41 -35q-14 -20 -27 -57v1q-7 -22 -22 -55q-51 -3 -62 -3h-19q-8 -1 -24 -1h-24h-17z" />
<glyph unicode="&#x2000;" horiz-adv-x="939" />
<glyph unicode="&#x2001;" horiz-adv-x="1879" />
<glyph unicode="&#x2002;" horiz-adv-x="939" />
<glyph unicode="&#x2003;" horiz-adv-x="1879" />
<glyph unicode="&#x2004;" horiz-adv-x="626" />
<glyph unicode="&#x2005;" horiz-adv-x="469" />
<glyph unicode="&#x2006;" horiz-adv-x="313" />
<glyph unicode="&#x2007;" horiz-adv-x="313" />
<glyph unicode="&#x2008;" horiz-adv-x="234" />
<glyph unicode="&#x2009;" horiz-adv-x="375" />
<glyph unicode="&#x200a;" horiz-adv-x="104" />
<glyph unicode="&#x2010;" horiz-adv-x="861" d="M133 475q43 73 43 121q0 21 -3 36l18 23h17q5 -1 17 -1h34q93 0 184 3q100 3 184 6l101 2q-44 -73 -44 -119q0 -20 12 -61q-182 0 -281 -2q-198 -4 -282 -8z" />
<glyph unicode="&#x2011;" horiz-adv-x="861" d="M133 475q43 73 43 121q0 21 -3 36l18 23h17q5 -1 17 -1h34q93 0 184 3q100 3 184 6l101 2q-44 -73 -44 -119q0 -20 12 -61q-182 0 -281 -2q-198 -4 -282 -8z" />
<glyph unicode="&#x2012;" horiz-adv-x="861" d="M133 475q43 73 43 121q0 21 -3 36l18 23h17q5 -1 17 -1h34q93 0 184 3q100 3 184 6l101 2q-44 -73 -44 -119q0 -20 12 -61q-182 0 -281 -2q-198 -4 -282 -8z" />
<glyph unicode="&#x2013;" horiz-adv-x="1411" d="M136 486q81 56 81 86q0 25 -18 40l13 34q243 -3 489 -3q85 0 133 1q96 0 145 1q113 0 279 2q-41 -26 -64 -51t-23 -38q0 -26 76 -72q-86 0 -133 1q-48 0 -146 0.5t-145 0.5h-133h-132q-48 0 -145.5 -0.5t-144.5 -0.5q-47 -1 -132 -1z" />
<glyph unicode="&#x2014;" horiz-adv-x="2306" d="M143 519l15 8q41 19 48 36q-5 25 -44 46l8 37q495 -3 988 -3q662 0 993 3l6 -36l-15 -6l3 1q-44 -25 -50 -37q1 -8 4.5 -14.5t10.5 -11.5t11.5 -8t14.5 -8t13 -6l-7 -34q-662 2 -995 2q-334 0 -996 -2z" />
<glyph unicode="&#x2018;" horiz-adv-x="619" d="M239 897q16 100 17 111q2 10 4 29t4 29q3 25 6 52l62 106q77 135 80 139q38 65 81 135q104 5 180 15q-30 -75 -74 -196q-43 -116 -69 -199q-7 -91 -12 -191l-20 -18q-24 0 -36 1h-36q-87 0 -187 -13z" />
<glyph unicode="&#x2019;" horiz-adv-x="614" d="M227 918q26 65 63 164q2 7 25 71t33 94l19 62q1 13 3 41t3 41q4 54 5 81l20 19q11 -1 33 -1h33q92 0 189 14q-5 -33 -7 -46q-14 -94 -15 -104q-2 -8 -7 -47q-21 -35 -42 -72q-19 -32 -110 -187q-44 -73 -70 -114h-14q-7 -1 -15 -1q-8 -1 -24 -1q-19 -1 -68 -6 q-8 -1 -26.5 -4t-27.5 -4z" />
<glyph unicode="&#x201a;" horiz-adv-x="562" d="M-16 -227q26 65 60 161q36 101 56 162q5 51 11 153l20 19q9 -1 26 -1h25q68 0 160 13q-3 -14 -7 -42q-2 -9 -4.5 -25t-3.5 -24q-5 -30 -12 -92q-110 -192 -183 -309q-5 0 -13.5 -1t-12.5 -1q-29 -2 -70 -6q-48 -6 -52 -7z" />
<glyph unicode="&#x201c;" horiz-adv-x="1108" d="M216 866q35 122 48 224q85 141 210 385q69 -3 80 -3h22q8 0 26 -0.5t27 -0.5q9 -1 22 -1q-9 -27 -31 -91q-3 -9 -8.5 -26t-7.5 -23q-2 -8 -7 -22.5t-7 -21.5q-39 -127 -65 -200q-10 -96 -27 -193l-20 -17q-16 0 -60.5 -1.5t-69.5 -2.5q-73 -2 -132 -6zM720 878 q9 183 11 214l28 45q42 73 102 169.5t114 169.5q7 0 24.5 1t34.5 2t32 1q17 1 49 3q7 0 21 0.5t20 1.5q-99 -183 -163 -398q-3 -47 -3 -92q0 -57 5 -101l-20 -22q-41 2 -78 3q-48 0 -128 2q-20 1 -49 1z" />
<glyph unicode="&#x201d;" horiz-adv-x="1057" d="M224 904q87 156 152 373q2 46 2 64q0 24 -2 78v20q-1 7 -1 20l20 19q50 -2 74 -2q21 0 121 -3q8 0 23.5 -0.5t21.5 -1.5q-4 -84 -12 -198l-34 -57q-112 -192 -195 -304l-51 -2q-16 0 -27 -1t-34 -1q-14 -1 -58 -4zM697 917q12 37 27 89q24 77 59 185q13 41 30 88 q18 134 26 179l20 16q36 0 124 4q113 5 122 6q-24 -79 -46 -209q-129 -217 -196 -361q-24 0 -38 1h-38h-20q-19 0 -51 2h-19z" />
<glyph unicode="&#x201e;" horiz-adv-x="1115" d="M-15 -222q89 168 160 400q2 66 2 97q0 49 -3 98l20 20q120 -3 130 -3q22 -1 66 -1q21 -1 62 -1v-16q-1 -9 -1 -16q-7 -130 -11 -184l-50 -82q-113 -193 -196 -306q-15 -1 -50 -1q-28 -1 -51 -3zM493 -211q55 177 61 196q28 89 65 195q9 70 13 97q4 38 14 97l20 16 q41 0 133 4q94 4 133 7q-28 -95 -50 -226q-105 -168 -213 -389q-62 2 -103 2h-16q-13 0 -20 1h-21h-16z" />
<glyph unicode="&#x2022;" horiz-adv-x="868" d="M196 731v17q0 10 1 15q12 121 90 205q86 79 220 79q112 0 183 -69q71 -71 71 -183q0 -149 -94 -242q-84 -80 -212 -80q-116 0 -186 67q-73 68 -73 191z" />
<glyph unicode="&#x2026;" horiz-adv-x="2046" d="M79 9q87 109 87 213q0 76 -52 163l181 -4q51 0 81 -1q29 -1 80 -1q25 -80 25 -145q0 -107 -55 -220q-47 0 -173 -2q-31 -1 -92 -1q-14 0 -41.5 -0.5t-40.5 -1.5zM760 16q33 165 33 361h338q-35 -152 -35 -279q0 -39 4 -82h-340zM1406 160q0 111 53 209l18 11q51 0 80 1 q58 0 88 1q20 0 167 3q-91 -114 -91 -218q0 -71 59 -158q-13 1 -40 1.5t-41 0.5q-60 0 -91 1q-124 2 -173 2q-29 78 -29 146z" />
<glyph unicode="&#x202f;" horiz-adv-x="375" />
<glyph unicode="&#x2039;" horiz-adv-x="834" d="M163 560l7 88q150 126 193 161q180 147 271 234l33 -18q-6 -32 -8 -52q-2 -9 -4.5 -27t-3.5 -27q-1 -22 -8 -61q-71 -68 -239 -208l-58 -49l11 -11q6 -8 10 -11q182 -179 230 -233q-3 -81 -3 -109q-1 -21 -1 -60v-49q-43 49 -120 127q-52 52 -124 122q-156 151 -186 183z " />
<glyph unicode="&#x203a;" horiz-adv-x="822" d="M167 125q1 11 6 34q5 31 7 44q3 15 7 45q1 7 2.5 18t2.5 15q0 4 1.5 15.5t2.5 18.5t2.5 18.5t1.5 15.5q59 55 201 174q32 25 49 41q5 4 21 18t27 23l-63 62q-7 7 -44.5 43.5t-53 52t-43 45t-48.5 54.5q5 88 5 168l34 13q97 -108 245 -249q144 -141 150 -147l-7 -87 q-78 -68 -203 -171q-71 -60 -155 -133q-85 -73 -148 -131z" />
<glyph unicode="&#x205f;" horiz-adv-x="469" />
<glyph unicode="&#x20ac;" horiz-adv-x="1503" d="M177 477l33 77l41 101h78q18 0 23 1h22l4 24q13 92 14 155h-54q-18 0 -29 1q-23 0 -34 1q-32 0 -64 2l10 20q2 4 6.5 12t6.5 12q4 9 12 25q2 3 5 9.5t5 9.5l22 48q26 0 48 -2h-1q36 -3 92 -3q55 237 210 372q84 73 198 109q102 33 218 33q197 0 324 -117l-19 -9l22 -1 l-9 -57q-2 -10 -5.5 -29t-4.5 -28v-16q-1 -7 -1 -22v-20q-1 -6 -1 -10q-79 92 -144 133q-83 51 -170 51q-76 0 -146 -30t-121 -87q-101 -116 -142 -274h50h119q82 0 124 1q21 0 62.5 0.5t62.5 1.5q44 0 118 2l-34 -64v1q-12 -22 -20 -38q-13 -23 -20 -38q-192 -2 -303 -2 h-94q-60 0 -94 1q-14 -87 -15 -175q67 0 102 1h106h106h101l-40 -94q-12 -26 -17 -39q-2 -5 -5.5 -14t-6 -15t-4.5 -11h-84q-24 0 -35 1h-35h-47h-41h-42q-14 -1 -46 -1q7 -24 23 -49.5t27.5 -39.5t36.5 -42q82 -92 232 -92q88 0 186 54q75 42 173 133q-1 -14 -6 -140 q-4 -102 -4 -139v-43q-166 -122 -346 -122q-116 0 -214 33q-110 37 -181 108q-125 128 -137 334l-80 -2z" />
<glyph unicode="&#x2122;" horiz-adv-x="1713" d="M348 1484q106 -5 507 -12l19 -19v-18q-1 -6 -1 -17v-55q-29 0 -48 1h-49h-47q-18 -2 -47 0q4 -59 4 -126q0 -162 -31 -329q-28 0 -45 -1t-44 -1h-25q-9 -1 -29 -1h-28h-22q85 216 92 461q-110 0 -185 4q-2 6 -6 26.5t-5 26.5zM888 911q24 143 74 467l15 94h184l17 -50v1 q23 -67 42 -123q22 -62 48 -121q108 180 212 299q36 0 98 2q13 0 22 1q8 0 24.5 0.5t24.5 0.5h18q-67 -180 -67 -341q0 -112 37 -241l-101 4q-13 0 -21 1h-26q-17 0 -24 1h-19q-9 70 -9 132q0 137 34 269q-83 -142 -156 -350h-105q-58 132 -127 361q-6 -134 -6 -267 q0 -100 3 -140h-192z" />
<glyph unicode="&#xe000;" horiz-adv-x="1110" d="M0 0v1110h1110v-1110h-1110z" />
</font>
</defs>
</svg>
