<?xml version="1.0" standalone="no"?>
<!DOCTYPE svg PUBLIC "-//W3C//DTD SVG 1.1//EN" "http://www.w3.org/Graphics/SVG/1.1/DTD/svg11.dtd" >
<svg xmlns="http://www.w3.org/2000/svg">
<metadata></metadata>
<defs>
<font id="opendyslexicregular" horiz-adv-x="1328" >
<font-face units-per-em="2048" ascent="1638" descent="-410" />
<missing-glyph horiz-adv-x="800" />
<glyph unicode="&#xfb01;" horiz-adv-x="1391" d="M150 987h176l-20 -987h245l-30 987h505l-20 -987h235l-30 1120h-690v99q0 194 176 194l176 40v153l-185 -20q-185 -31 -273.5 -120.5t-88.5 -267.5v-78h-176v-133zM1026 1321h185v233h-185v-233z" />
<glyph unicode="&#xfb02;" horiz-adv-x="1462" d="M150 977h166l-30 -977h295l-60 977h293v143h-293l-10 119q0 104 38.5 144t137.5 40h329v-1423h295v210l-110 -2v1348h-512q-189 0 -276 -85.5t-87 -272.5l-10 -78h-166v-143z" />
<glyph horiz-adv-x="0" />
<glyph unicode="&#xd;" horiz-adv-x="2048" />
<glyph horiz-adv-x="0" />
<glyph horiz-adv-x="0" />
<glyph unicode=" "  horiz-adv-x="800" />
<glyph unicode="&#x09;" horiz-adv-x="800" />
<glyph unicode="&#xa0;" horiz-adv-x="800" />
<glyph unicode="!" horiz-adv-x="572" d="M150 481h272l-30 357l-10 655h-193l-20 -655zM159 0h253l-20 254h-213z" />
<glyph unicode="&#x22;" horiz-adv-x="901" d="M150 906h201l-11 587h-179zM550 906h201l-11 587h-180z" />
<glyph unicode="#" horiz-adv-x="1701" d="M150 414h315l-104 -414h161l103 414h293l-103 -414h160l104 414h357v153h-318l82 334h351v154h-312l103 415h-160l-105 -415h-292l104 415h-162l-102 -415h-361v-154h322l-84 -334h-352v-153zM664 567l84 334h291l-82 -334h-293z" />
<glyph unicode="$" horiz-adv-x="1268" d="M150 109q206 -93 409 -99l-24 -301l180 -3l-15 303q189 12 302 109t116 263q-7 155 -107 237.5t-328 121.5l8 466q187 -11 348 -98l3 155q-160 57 -349 68l4 232l-100 2l-4 -235q-204 -10 -314.5 -102t-113.5 -255q7 -152 102 -239.5t304 -126.5l-7 -395q-207 5 -410 137 zM307 973q0 89 72 151.5t196 75.5l-10 -450q-125 21 -191.5 79t-66.5 144zM675 578q124 -24 185 -76.5t61 -139.5q0 -25 -6.5 -45t-14.5 -34t-27.5 -26t-33.5 -18.5t-45.5 -13.5t-49.5 -10t-59 -10z" />
<glyph unicode="%" horiz-adv-x="2020" d="M150 1114q0 -188 92.5 -297.5t251.5 -109.5t252.5 109t93.5 298q0 186 -94 296t-252 110t-251 -110t-93 -296zM309 1120q0 127 49.5 200t135.5 73t136 -73.5t50 -199.5q0 -129 -49.5 -201.5t-136.5 -72.5t-136 72.5t-49 201.5zM463 -29h161l943 1549h-161zM1180 377 q0 -187 93 -296.5t253 -109.5q157 0 250.5 110t93.5 296q0 187 -93 297t-251 110q-159 0 -252.5 -109.5t-93.5 -297.5zM1340 397q0 122 49.5 191t136.5 69q85 0 134.5 -69.5t49.5 -190.5t-49.5 -190.5t-134.5 -69.5q-87 0 -136.5 69.5t-49.5 190.5z" />
<glyph unicode="&#x26;" horiz-adv-x="1705" d="M150 461q0 -215 153 -352.5t394 -137.5q257 0 463 176l143 -147h252l-279 285q55 74 87.5 167t40.5 148.5t18 171.5q2 19 3 29h-186q-7 -132 -26.5 -218t-74.5 -168l-548 540q-93 96 -120 146q-30 51 -30 102q0 88 65.5 143.5t170.5 55.5q136 0 313 -96l70 142 q-170 72 -333 72q-184 0 -295 -98.5t-111 -260.5q0 -119 98 -248q-268 -198 -268 -452zM293 510q0 175 178 333l534 -548q-146 -128 -337 -128q-161 0 -268 98t-107 245z" />
<glyph unicode="'" horiz-adv-x="470" d="M150 938h170v555h-170v-555z" />
<glyph unicode="(" horiz-adv-x="724" d="M150 680q0 -467 188 -936l210 -14q-103 218 -142.5 437.5t-51.5 495.5q19 441 333 884l-160 14q-340 -441 -377 -881z" />
<glyph unicode=")" horiz-adv-x="724" d="M37 -230l229 -14q73 135 118 225.5t94 210t72.5 230.5t23.5 218q-1 245 -49.5 473t-169.5 460l-159 14q104 -224 144 -448.5t40 -481.5q-42 -458 -343 -887z" />
<glyph unicode="*" horiz-adv-x="1272" d="M150 1207l389 -154l-359 -195l98 -138l296 243v-377l154 30l-40 347l336 -203l98 138l-399 155l359 194l-18 139l-376 -243v377l-154 -40l40 -337l-336 203z" />
<glyph unicode="+" horiz-adv-x="1582" d="M150 557h557v-557h168v557h557v170h-557v557h-168v-557h-557v-170z" />
<glyph unicode="," horiz-adv-x="653" d="M150 -288h129l224 320v212h-251v-212z" />
<glyph unicode="-" horiz-adv-x="846" d="M150 479l539 9l7 165l-539 -10z" />
<glyph unicode="." horiz-adv-x="599" d="M150 0h299v323h-299v-323z" />
<glyph unicode="/" horiz-adv-x="1028" d="M150 -190l230 -8l498 1667l-150 5z" />
<glyph unicode="0" horiz-adv-x="1332" d="M150 745q0 -379 128 -576.5t378 -197.5t383 197.5t143 576.5q0 380 -128 577.5t-378 197.5t-383 -197.5t-143 -577.5zM363 890q0 550 313 550q314 0 314 -550q-21 -279 -100.5 -414t-233.5 -135q-155 0 -224 131.5t-69 417.5z" />
<glyph unicode="1" horiz-adv-x="1189" d="M150 1237l359 72v-1029h-330v-280h860v280h-330v1213h-202l-357 -72v-184z" />
<glyph unicode="2" horiz-adv-x="1248" d="M150 0h948v290h-495q34 128 168 268q128 132 159 167q89 110 124.5 192.5t35.5 176.5q0 194 -138 310t-370 116q-174 0 -422 -99v-204q239 133 426 133q134 0 217.5 -75t83.5 -194q0 -72 -38 -148q-43 -84 -121 -168t-243 -210q-174 -132 -335 -265v-290z" />
<glyph unicode="3" horiz-adv-x="1283" d="M150 45q213 -74 399 -74q283 0 433.5 122.5t150.5 360.5q0 146 -82.5 243t-225.5 108q131 33 202 118.5t71 209.5q0 178 -134 282.5t-364 104.5q-177 0 -405 -64v-160q221 74 387 74q152 0 233.5 -61.5t81.5 -176.5q0 -112 -79 -171.5t-228 -59.5h-182v-166h174 q160 0 255 -72.5t95 -178.5q0 -52 -99 -138q-100 -85 -290 -85q-222 0 -393 99v-315z" />
<glyph unicode="4" horiz-adv-x="1388" d="M150 422h654l-20 -422h271l-20 422h203v168h-203l-10 903h-254l-621 -946v-125zM314 590l510 797l-10 -797h-500z" />
<glyph unicode="5" horiz-adv-x="1266" d="M150 35q207 -64 393 -64q273 0 423 133.5t150 374.5q0 234 -146 371t-396 137q-68 0 -196 -30v386h628v150h-793v-750q163 74 326 74q176 0 270.5 -77t94.5 -231q0 -39 -25.5 -83t-70 -83.5t-116 -65.5t-153.5 -26q-210 0 -389 97v-313z" />
<glyph unicode="6" horiz-adv-x="1331" d="M150 745q0 -377 137 -575.5t396 -198.5q226 0 362 139t136 369q0 235 -130.5 371.5t-355.5 136.5q-107 0 -196 -46.5t-148 -133.5q15 273 120.5 408t305.5 135q151 0 307 -74v184q-168 60 -315 60q-283 0 -451 -210.5t-168 -564.5zM388 479q0 162 79.5 255t215.5 93 t215.5 -93t79.5 -255q0 -101 -79.5 -159.5t-215.5 -58.5t-215.5 58.5t-79.5 159.5z" />
<glyph unicode="7" horiz-adv-x="1250" d="M150 1343h767l-550 -1343h361l372 1407v86h-950v-150z" />
<glyph unicode="8" horiz-adv-x="1364" d="M150 420q0 -215 141.5 -332t390.5 -117t390.5 117t141.5 332q0 141 -90 241t-239 134q127 32 190.5 119.5t63.5 218.5q0 164 -120 265.5t-337 101.5q-216 0 -336.5 -101.5t-120.5 -265.5q0 -131 64 -218.5t191 -119.5q-149 -34 -239.5 -134t-90.5 -241zM373 440 q0 135 82.5 212t226.5 77q145 0 227.5 -77t82.5 -212q0 -81 -87 -150t-223 -69t-222.5 68.5t-86.5 150.5zM406 1174q0 99 74 162.5t202 63.5q127 0 202 -64t75 -162q0 -116 -73.5 -181t-203.5 -65q-131 0 -203.5 65t-72.5 181z" />
<glyph unicode="9" horiz-adv-x="1330" d="M150 1012q0 -235 130.5 -370.5t354.5 -135.5q108 0 197 46t147 132q-5 -91 -19.5 -158t-41 -114t-59.5 -76.5t-82 -46t-100.5 -22.5t-123.5 -6q-151 0 -307 74v-304q168 -60 316 -60q283 0 450.5 210.5t167.5 563.5q0 378 -136.5 576.5t-395.5 198.5q-226 0 -362 -139 t-136 -369zM271 1044q0 161 97 254.5t263 93.5q165 0 262 -93.5t97 -254.5q0 -63 -17 -107.5t-45 -70t-77 -39t-97.5 -17.5t-122.5 -4q-62 0 -104 2.5t-86.5 11t-73 24.5t-52 42t-34 65.5t-10.5 92.5z" />
<glyph unicode=":" horiz-adv-x="561" d="M150 0h261v306h-261v-306zM150 816h261v285h-261v-285z" />
<glyph unicode=";" horiz-adv-x="629" d="M150 -328h143l182 355v191h-234v-191zM236 803h243v293h-243v-293z" />
<glyph unicode="&#x3c;" horiz-adv-x="1637" d="M150 591l1237 -574l21 241l-997 453l1060 276l16 181l-1317 -351z" />
<glyph unicode="=" horiz-adv-x="1582" d="M150 352h1282v200h-1282v-200zM150 762h1282v168h-1282v-168z" />
<glyph unicode="&#x3e;" horiz-adv-x="1637" d="M150 137l1318 351l19 226l-1236 575l-16 -182l994 -455l-1058 -274z" />
<glyph unicode="?" horiz-adv-x="1087" d="M150 1249q199 137 355 137q105 0 172 -68t67 -161q-9 -46 -41 -81t-117 -105l-100 -89q-87 -84 -116.5 -153t-29.5 -174v-154h261v123q0 52 3 82q6 60 37 103q15 20 46 73l78 86q90 97 131 163t41 136q0 160 -107 256.5t-290 96.5q-204 0 -390 -113v-158zM334 -10h263 v284h-263v-284z" />
<glyph unicode="@" horiz-adv-x="2070" d="M150 543q0 -189 67 -353.5t195 -289.5t292 -190.5t349 -65.5q152 0 299.5 51.5t272.5 148.5l-90 181q-203 -158 -482 -158q-166 0 -291.5 41.5t-226.5 141.5q-71 75 -111.5 125t-73.5 109t-46 119.5t-13 139.5q0 193 88.5 358.5t245.5 267.5q194 129 445 129 q176 0 325.5 -69.5t253.5 -200.5q127 -160 127 -375q0 -177 -82.5 -288.5t-228.5 -133.5v736h-143v-131q-118 151 -318 151q-171 0 -279 -125t-108 -325t107.5 -324.5t279.5 -124.5q201 0 318 150v-154q280 6 439 158t159 415q0 249 -154 451q-123 160 -304.5 247t-393.5 87 q-189 0 -358 -67.5t-298 -194.5q-126 -125 -194 -290t-68 -347zM747 619q0 126 71.5 199.5t192.5 73.5q122 0 194 -74t72 -199q0 -127 -70.5 -200.5t-193.5 -73.5q-124 0 -195 73t-71 201z" />
<glyph unicode="A" horiz-adv-x="1668" d="M150 0h273l76 243h673l56 -243h290l-589 1493h-189zM560 481l274 828l275 -828h-549z" />
<glyph unicode="B" horiz-adv-x="1379" d="M150 0h536q253 0 398 109.5t145 308.5q0 156 -95 255.5t-289 131.5q124 20 188 101t64 218q0 177 -125 273t-356 96h-466v-1493zM352 296v417h324q162 0 242 -66q78 -67 78 -117q0 -134 -75 -184t-245 -50h-324zM352 877v480h299q144 0 218.5 -69t74.5 -186 q0 -225 -293 -225h-299z" />
<glyph unicode="C" horiz-adv-x="1504" d="M150 745q0 -359 195 -566.5t534 -207.5q263 0 475 144v351q-202 -189 -463 -189q-265 0 -394.5 107t-133.5 361q0 296 136 452.5t392 156.5q261 0 463 -189v213q-208 142 -475 142q-339 0 -534 -207.5t-195 -567.5z" />
<glyph unicode="D" horiz-adv-x="1555" d="M150 0h415q432 0 636 181t204 567q0 384 -203 564.5t-637 180.5h-415v-1493zM362 376v951h244q306 0 449.5 -138t143.5 -421q-12 -116 -47 -190t-107 -120t-176 -64t-263 -18h-244z" />
<glyph unicode="E" horiz-adv-x="1262" d="M150 0h962v310h-760v401h711v170h-711v442h742v170h-944v-1493z" />
<glyph unicode="F" horiz-adv-x="1158" d="M150 0h252l-20 673h572v210h-582l20 430h616v180h-818z" />
<glyph unicode="G" horiz-adv-x="1604" d="M150 745q0 -365 197 -569.5t548 -204.5q323 0 559 168v611h-550v-216h320v-161q-72 -76 -312 -76q-142 0 -238.5 21.5t-167 74.5t-104.5 144t-39 228q0 609 549 609q279 0 503 -191v195q-226 142 -520 142q-351 0 -548 -204.5t-197 -570.5z" />
<glyph unicode="H" horiz-adv-x="1458" d="M150 0h232v501h694v-501h232l-20 1493h-212v-712h-694v712h-212z" />
<glyph unicode="I" horiz-adv-x="542" d="M150 0h242q-12 225 -18 455.5t-8.5 582t-3.5 455.5h-172q-2 -124 -6 -365t-6.5 -390t-9.5 -356.5t-18 -381.5z" />
<glyph unicode="J" horiz-adv-x="926" d="M150 -90l4 -330l117 -12q239 4 342.5 115.5t108.5 379.5l54 1418l-212 14l-54 -1419q-3 -72 -68 -127t-190 -61z" />
<glyph unicode="K" horiz-adv-x="1505" d="M150 0h262l-40 719l507 -719h476l-794 797l741 696h-260l-670 -631l20 631h-202z" />
<glyph unicode="L" horiz-adv-x="1239" d="M150 0h919l20 310h-717v1183h-202z" />
<glyph unicode="M" horiz-adv-x="1706" d="M150 0h256l-40 1311l365 -1074h243l365 1074l-40 -1311h257l-30 1493h-281l-393 -886l-371 886h-301z" />
<glyph unicode="N" horiz-adv-x="1450" d="M150 0h256l-60 1249l662 -1249h292v1493h-186l-30 -1209l-642 1179h-252z" />
<glyph unicode="O" horiz-adv-x="1682" d="M150 745q0 -354 188.5 -564t503.5 -210q314 0 502 210.5t188 563.5q0 354 -188 564.5t-502 210.5q-315 0 -503.5 -210.5t-188.5 -564.5zM363 745q0 282 129.5 446.5t349.5 164.5t348.5 -164.5t128.5 -446.5q0 -113 -32.5 -190.5t-97.5 -120.5t-148 -61t-199 -18 t-199.5 18t-149 61t-98 120.5t-32.5 190.5z" />
<glyph unicode="P" horiz-adv-x="1314" d="M150 0h242l20 580h244q249 0 378.5 121.5t129.5 345.5q0 219 -128.5 332.5t-379.5 113.5h-446zM402 846l20 561h253q151 0 233.5 -73t82.5 -207q0 -135 -82.5 -208t-233.5 -73h-273z" />
<glyph unicode="Q" horiz-adv-x="1751" d="M150 745q0 -233 85.5 -409t240 -270.5t356.5 -94.5q25 0 84 4l211 -239h474l-316 351q41 46 71.5 86t65.5 102t57.5 126.5t37.5 154t15 189.5q0 354 -188 564.5t-502 210.5q-315 0 -503.5 -210.5t-188.5 -564.5zM363 745q0 282 129.5 446.5t349.5 164.5t348.5 -164.5 t128.5 -446.5q0 -232 -188 -336q-122 16 -242 71l-83 -139l-94 14q-42 5 -83 15.5t-91.5 38.5t-87 68.5t-62 110t-25.5 157.5z" />
<glyph unicode="R" horiz-adv-x="1463" d="M150 0h242v631h150q122 0 191 -50t142 -198l151 -383h287l-205 408q-123 250 -250 292q107 37 166.5 130.5t59.5 232.5q0 213 -124.5 321.5t-353.5 108.5h-456v-1493zM372 837v550h254q63 0 115.5 -15.5t99.5 -50.5t73.5 -100.5t26.5 -157.5q0 -89 -98 -157.5t-217 -68.5 h-254z" />
<glyph unicode="S" horiz-adv-x="1351" d="M150 1094q0 -171 101 -267t327 -141l123 -24q144 -29 216.5 -89t72.5 -126q0 -74 -100 -138t-261 -64q-225 0 -473 139v-318q258 -95 473 -95q281 0 426.5 112t145.5 329q0 183 -108 291t-333 151l-122 25q-164 30 -224.5 80.5t-60.5 150.5q0 118 89.5 182t254.5 64 q186 0 414 -109v197q-227 76 -437 76q-245 0 -384.5 -114t-139.5 -312z" />
<glyph unicode="T" horiz-adv-x="1563" d="M150 1323l530 20l-40 -1343h283l-40 1343l530 -20v170h-1263v-170z" />
<glyph unicode="U" horiz-adv-x="1443" d="M150 561q0 -292 144.5 -441t427.5 -149q282 0 426.5 149t144.5 441v932h-213l19 -767v-28q0 -214 -87 -316q-93 -108 -290 -107q-198 -1 -292 107q-88 101 -87 316v28l20 767h-213v-932z" />
<glyph unicode="V" horiz-adv-x="1668" d="M150 1493l520 -1493h329l519 1493h-210l-474 -1117l-473 1117h-211z" />
<glyph unicode="W" horiz-adv-x="2190" d="M150 1493l334 -1493h314l298 806l275 -806h294l375 1493h-195l-343 -1092l-324 712h-177l-353 -692l-304 1072h-194z" />
<glyph unicode="X" horiz-adv-x="1578" d="M150 0h328l313 535l310 -535h327l-492 696l460 797h-217l-373 -635l-371 635h-217l445 -796z" />
<glyph unicode="Y" horiz-adv-x="1559" d="M150 1493l488 -982v-511h273v511l498 982h-217l-411 -764l-414 764h-217z" />
<glyph unicode="Z" horiz-adv-x="1519" d="M150 0h1219v300h-967l944 1039v154h-1173v-170h921l-944 -1039v-284z" />
<glyph unicode="[" horiz-adv-x="674" d="M150 -270h424v223h-240v1460h240v143h-424v-1826z" />
<glyph unicode="\" horiz-adv-x="931" d="M150 1492l421 -1698l210 -8l-461 1701z" />
<glyph unicode="]" horiz-adv-x="674" d="M100 -57v-213h424v1826h-424v-143h239v-1470h-239z" />
<glyph unicode="^" horiz-adv-x="1582" d="M150 936h311l330 455l330 -455h311l-563 557h-156z" />
<glyph unicode="_" horiz-adv-x="1364" d="M150 -264v-179h1064v179h-1064z" />
<glyph unicode="`" horiz-adv-x="779" d="M150 1718l206 -374h273l-282 374h-197z" />
<glyph unicode="a" horiz-adv-x="1246" d="M150 326q0 -162 101.5 -258.5t273.5 -96.5q258 0 387 189v-160h184v639q0 256 -120 382t-363 126q-179 0 -381 -78v-150q169 92 362 92q159 -10 238.5 -83.5t79.5 -202.5v-18h-258q-504 0 -504 -381zM304 376q1 73 29 113.5t102 61.5t208 21h166v-41q0 -90 -13 -145 t-46.5 -85t-78 -40t-118.5 -10q-57 0 -93.5 4t-72 16t-56 38t-27.5 67z" />
<glyph unicode="b" horiz-adv-x="1302" d="M170 1556h185l-21 -586q56 96 143 136.5t216 40.5q204 0 331.5 -162.5t127.5 -425.5t-127.5 -425.5t-331.5 -162.5q-108 0 -183.5 15t-124 46.5t-77 71.5t-49.5 99q-18 39 -31 214.5t-29.5 551.5t-28.5 587zM423 592q6 -47 10 -73t12.5 -60t18 -51.5t25.5 -39t37.5 -32 t51.5 -20.5t69 -13.5t89 -3.5q66 5 112.5 20t86 48t64 91t36.5 143q-6 199 -81 307t-218 108q-147 0 -230 -111t-83 -313z" />
<glyph unicode="c" horiz-adv-x="1186" d="M150 559q0 -270 149 -429t402 -159q181 0 335 72l-4 289q-30 -16 -60.5 -26t-68.5 -14t-59 -5q-10 0 -28 -1q-18 0 -42 1q-48 1 -61 1q-182 10 -263.5 69.5t-95.5 201.5q0 208 95 325t272 117q158 0 315 -86v162q-150 70 -323 70q-262 0 -412.5 -157t-150.5 -431z" />
<glyph unicode="d" horiz-adv-x="1321" d="M150 559q0 -263 127 -425.5t331 -162.5q245 0 359 197v-168h184l20 1556h-184l-20 -606q-114 197 -359 197q-204 0 -331 -162.5t-127 -425.5zM282 579q0 203 83.5 318.5t229.5 115.5q279 0 290 -420q-3 -92 -21 -149t-57 -87t-88.5 -40.5t-128.5 -10.5q-145 0 -215 63 t-93 210z" />
<glyph unicode="e" d="M150 549q0 -264 155.5 -416t425.5 -162q211 0 415 86l-4 254q-47 -25 -94.5 -39.5t-107.5 -20t-93.5 -6.5t-108.5 -1q-80 4 -135 14t-107.5 33t-83.5 62t-50 102t-20 151h836v70q-19 237 -134.5 349t-343.5 122q-251 0 -395.5 -160t-154.5 -438zM362 766q0 51 24.5 101.5 t67.5 91t108 66t139 25.5q65 0 122.5 -26.5t96.5 -68.5t64.5 -91t33.5 -98h-656z" />
<glyph unicode="f" horiz-adv-x="964" d="M150 937h166l-30 -937h265l-30 937h293v183h-293l-10 99q0 100 27 132t99 32l166 -20v153l-164 20q-67 0 -122 -18.5t-98.5 -57t-68 -105.5t-24.5 -157l-10 -78h-166v-183z" />
<glyph unicode="g" horiz-adv-x="1321" d="M150 573q0 -259 126 -416t332 -157q118 0 208 46.5t141 120.5v-61q-9 -43 -25.5 -86.5t-47.5 -90.5t-71 -82.5t-99 -58.5t-128 -23q-164 0 -321 86v-328q159 -59 350 -59q135 0 228 33t159.5 111t99.5 208t39 323l30 981h-184l-20 -170q-113 197 -359 197 q-207 0 -332.5 -157t-125.5 -417zM260 584q0 200 82.5 310t230.5 110q149 0 231.5 -110t82.5 -310q0 -78 -16 -131.5t-41 -83.5t-70.5 -46.5t-88.5 -20.5t-112 -4q-55 0 -89 2.5t-69.5 12.5t-55.5 28.5t-38.5 50.5t-29 78.5t-17.5 113.5z" />
<glyph unicode="h" horiz-adv-x="1278" d="M150 0h225l-20 633q0 167 87 270.5t234 103.5q132 0 194 -77q55 -68 55 -220q0 -19 -1 -40l-30 -670h234l-20 676q0 232 -99 351.5t-292 119.5q-231 0 -362 -201l20 610h-185z" />
<glyph unicode="i" horiz-adv-x="534" d="M150 0h234q-45 436 -44 853q0 134 4 267h-164q1 -76 1 -150q0 -522 -31 -970zM170 1323h184l-10 233h-164z" />
<glyph unicode="j" horiz-adv-x="734" d="M50 -456l100 -2q180 7 263.5 111t87.5 319l40 1140l-174 3l-48 -1020q-3 -72 -10.5 -117.5t-18.5 -77t-34 -47t-49.5 -23t-72.5 -10.5h-79zM400 1323h184l-10 233h-164z" />
<glyph unicode="k" horiz-adv-x="1324" d="M150 0h245l-30 527l429 -527h380l-619 596l424 524h-235l-379 -443l10 879h-185z" />
<glyph unicode="l" horiz-adv-x="700" d="M150 0h400v228h-216q4 538 40 1238h-174q-41 -784 -50 -1466z" />
<glyph unicode="m" horiz-adv-x="1985" d="M150 0h255l-20 633q0 166 89 280t228 114q119 0 176 -77.5t57 -239.5l-90 -710h255l30 633q8 172 84.5 278t214.5 106q113 0 157 -74.5t44 -242.5l-70 -700h275l-20 676q0 226 -95 348.5t-270 122.5q-127 0 -214 -58t-157 -184q-41 116 -135.5 179t-218.5 63 q-237 0 -360 -201l20 174h-185z" />
<glyph unicode="n" horiz-adv-x="1308" d="M150 0h255l-30 643q0 168 83 261t248 93q121 0 174.5 -77.5t53.5 -239.5l-40 -680h264l-30 676q-20 471 -401 471q-55 0 -108 -13t-100.5 -38t-80 -46.5t-73.5 -53.5v134h-185z" />
<glyph unicode="o" d="M150 559q0 -275 136.5 -431.5t377.5 -156.5q240 0 377 156.5t137 431.5q0 276 -137 432t-377 156q-241 0 -377.5 -156t-136.5 -432zM344 591q0 195 86 307.5t234 112.5q147 0 233 -113.5t86 -306.5q0 -77 -15 -131.5t-40.5 -87.5t-67.5 -51.5t-87 -25t-109 -6.5 q-65 0 -110.5 6.5t-87.5 25t-67 51.5t-40 87.5t-15 131.5z" />
<glyph unicode="p" horiz-adv-x="1360" d="M150 -426h235l8 594q114 -197 358 -197q204 0 331.5 162.5t127.5 425.5t-127.5 425.5t-331.5 162.5q-244 0 -358 -197l31 153h-185v-843zM466 591q0 203 83.5 318.5t229.5 115.5t229.5 -115.5t83.5 -318.5q0 -100 -19 -163.5t-60.5 -97t-93 -45t-130.5 -11.5 q-80 0 -134 12t-99.5 44.5t-67.5 97t-22 163.5z" />
<glyph unicode="q" horiz-adv-x="1488" d="M150 559q0 -263 127 -425.5t331 -162.5q245 0 359 197l-56 -594l260 3l167 141l-226 216l63 1186h-178l-30 -170q-114 197 -359 197q-204 0 -331 -162.5t-127 -425.5zM272 585q0 203 83.5 318.5t229.5 115.5t230 -115.5t84 -318.5q0 -80 -15 -136t-40 -89t-68 -51.5 t-87 -24.5t-109 -6q-81 0 -131.5 10t-94 41.5t-63 94t-19.5 161.5z" />
<glyph unicode="r" horiz-adv-x="979" d="M150 0h288l-40 560q0 393 293 393q52 0 81 -4.5t56 -20.5v189q-53 10 -83 10q-180 0 -347 -131v114h-170q5 -164 5 -295q1 -161 -7 -271q-14 -202 -76 -544z" />
<glyph unicode="s" horiz-adv-x="1156" d="M150 41q214 -70 393 -70q215 0 339 91t124 247q0 136 -81.5 208t-279.5 114l-63 14q-147 33 -201.5 74t-54.5 116q0 84 74 131t210 47q179 0 336 -80v154q-152 60 -358 60t-318 -86t-112 -244q0 -127 74 -192.5t249 -102.5l64 -15q172 -38 195 -64q25 -29 57 -88 q0 -150 -250 -150q-194 0 -397 106v-270z" />
<glyph unicode="t" horiz-adv-x="999" d="M150 977h135l-10 -608q0 -208 85 -288.5t300 -80.5h189v274h-189q-80 0 -118.5 16t-55 61t-16.5 138l10 488h259v143h-259l10 278h-195l-10 -278h-135v-143z" />
<glyph unicode="u" horiz-adv-x="1248" d="M150 442q0 -231 100 -351t293 -120q229 0 361 201l-10 -172h184l20 1120h-204l-20 -475q-10 -167 -92.5 -260.5t-229.5 -93.5q-121 0 -179.5 78t-68.5 240v511h-154v-678z" />
<glyph unicode="v" horiz-adv-x="1390" d="M150 1120l410 -1120h270l410 1120h-195l-350 -820l-350 820h-195z" />
<glyph unicode="w" horiz-adv-x="1803" d="M150 1120l293 -1120h247l212 508l201 -508h257l293 1120h-184l-229 -784l-210 414h-257l-209 -414l-230 784h-184z" />
<glyph unicode="x" horiz-adv-x="1426" d="M150 0h297l276 390l256 -390h297l-436 525l395 595h-187l-337 -459l-307 459h-197l388 -584z" />
<glyph unicode="y" horiz-adv-x="1390" d="M150 1120l479 -1027l-79 -159q-32 -40 -49 -58.5t-43 -40t-54 -29.5t-65 -8h-128v-244h167q67 0 113 12.5t94 48.5t91 104t92 177l472 1224h-195l-304 -651l-396 651h-195z" />
<glyph unicode="z" horiz-adv-x="1209" d="M150 0h899v247h-622l632 705v168h-864v-137h667l-712 -715v-268z" />
<glyph unicode="{" horiz-adv-x="1059" d="M150 540h61q139 -3 188.5 -60.5t56.5 -211.5l-4 -238q2 -77 10 -130t27 -97t47.5 -70t75.5 -44.5t106.5 -26.5t145.5 -10h64v205h-68q-56 1 -94 9t-62 21t-38 38.5t-19.5 52.5t-9.5 72l4 248q-7 142 -47.5 211.5t-147.5 97.5q112 23 158 93.5t49 226.5l4 248q1 50 4 81.5 t13 58t24 40t42 24t61.5 14.5t86.5 6h68l3 144h-62q-87 -2 -146.5 -9t-109.5 -23t-79.5 -40.5t-50.5 -65.5t-29.5 -94t-9.5 -129l-4 -240q-3 -147 -56.5 -199.5t-198.5 -58.5h-61z" />
<glyph unicode="|" horiz-adv-x="510" d="M150 -483h190l30 1010l40 1038h-170z" />
<glyph unicode="}" horiz-adv-x="911" d="M117 -180v-154h63q129 0 206 15.5t126 59t66.5 112t17.5 182.5v239q0 151 54 209t196 58h62v143h-62q-142 0 -196 57.5t-54 206.5v240q0 114 -17.5 182.5t-66.5 111.5t-126 58.5t-206 15.5h-63v-143h70q140 0 182.5 -43.5t42.5 -185.5v-248q0 -156 45 -227.5t156 -96.5 q-111 -27 -156 -98t-45 -217v-248q0 -75 -8.5 -117t-34.5 -68.5t-67.5 -35t-114.5 -8.5h-70z" />
<glyph unicode="~" horiz-adv-x="1582" d="M150 437q135 114 186 148q95 62 172 62q95 0 249 -82q8 -2 22 -8q9 -3 16 -6q146 -89 256 -89q56 0 121.5 28.5t103.5 54t126 92.5q20 14 30 22v158q-103 -84 -187.5 -122t-170.5 -38q-93 0 -249 62l-37 14q-147 60 -257 60q-97 0 -186.5 -34.5t-194.5 -113.5v-208z" />
<glyph unicode="&#xa1;" horiz-adv-x="601" d="M150 1259h243l-30 274h-183zM174 651l14 -655l263 8l-34 655l-32 356l-202 -7z" />
<glyph unicode="&#xa2;" horiz-adv-x="1196" d="M150 559q-4 -258 126 -413.5t370 -179.5l-5 -288l102 -2l5 284q150 12 280 67l5 250q-146 -74 -281 -81l15 814q135 -7 277 -91l2 142q-129 62 -276 73l4 287l-102 2l-5 -287q-242 -18 -377 -168.5t-140 -408.5zM345 555q4 203 87.5 320.5t231.5 132.5l-14 -806 q-146 20 -226.5 114t-78.5 239z" />
<glyph unicode="&#xa3;" horiz-adv-x="1313" d="M150 0l993 -17l6 220l-557 9l12 435l391 -7l3 123l-391 7l6 215q4 142 32 218.5t83.5 107.5t158.5 37q118 -1 271 -87l5 182q-165 63 -289 65q-235 -6 -344 -121.5t-116 -374.5l-7 -238l-199 3l-3 -123l199 -3l-12 -435l-236 4z" />
<glyph unicode="&#xa4;" horiz-adv-x="1418" d="M150 197l113 -115l207 207q122 -74 239 -74q120 0 236 78l207 -207l114 113l-209 207q78 112 78 235q0 122 -73 240l206 206l-114 115l-207 -209q-118 74 -238 74q-128 0 -235 -76l-207 207l-115 -115l207 -206q-76 -112 -76 -236q0 -113 74 -238zM439 643 q0 111 79 188.5t191 77.5q114 0 191.5 -77t77.5 -189q0 -194 -269 -194q-270 0 -270 194z" />
<glyph unicode="&#xa5;" horiz-adv-x="1457" d="M150 1493l307 -586h-264v-123h332l104 -155v-51h-416v-163h416l-30 -415h261l-20 415h413v163h-415v51l84 155h331v123h-264l318 586h-211l-367 -700l-369 700h-210z" />
<glyph unicode="&#xa6;" horiz-adv-x="470" d="M150 -483h190l30 1009h-170zM201 633h170l39 932h-170z" />
<glyph unicode="&#xa7;" horiz-adv-x="1138" d="M150 723q0 -102 64 -178q66 -79 278 -197l25 -14q221 -123 221 -205q0 -72 -53.5 -101t-161.5 -29q-119 0 -293 78v-214q174 -58 315 -58q173 0 275 84t102 226q0 126 -119 225q185 106 185 283q0 101 -65 178q-68 79 -277 196l-40 23q-206 116 -206 205q0 71 54 111 t151 40q115 0 282 -78v164q-156 58 -305 58q-165 0 -265.5 -79.5t-100.5 -209.5q0 -137 118 -225q-184 -99 -184 -283zM312 778q0 91 125 182q246 -134 318 -201q71 -68 71 -143q0 -93 -125 -182q-251 135 -319 202q-70 66 -70 142z" />
<glyph unicode="&#xa8;" horiz-adv-x="937" d="M150 1350h218v217h-218v-217zM569 1350h218v217h-218v-217z" />
<glyph unicode="&#xa9;" horiz-adv-x="1782" d="M150 741q0 -305 217 -522q219 -219 524 -219t524 219q217 217 217 522q0 308 -217 525q-219 219 -524 219t-524 -219q-217 -217 -217 -525zM250 741q0 263 190 453q188 188 451 188q265 0 453 -188q186 -188 186 -453q0 -275 -186 -420q-204 -139 -453 -139 q-247 0 -451 139q-190 170 -190 420zM449 741q0 -208 125.5 -330t341.5 -122q144 0 274 57v187q-127 -65 -252 -65q-147 0 -236.5 83t-89.5 190q0 160 85 261t231 101q132 0 262 -65v99q-133 55 -274 55q-216 0 -341.5 -121t-125.5 -330z" />
<glyph unicode="&#xaa;" horiz-adv-x="1012" d="M150 946q0 -113 76 -180.5t204 -67.5q189 0 281 131v-112h149v448q0 179 -89.5 267t-272.5 88q-140 0 -287 -56v-127q138 68 266 68q234 0 234 -182v-4h-182q-379 0 -379 -273zM174 469h688v123h-688v-123zM287 1023q0 79 63 113q63 33 224 33h127v-29q0 -114 -65 -186 t-169 -72q-82 0 -131 38.5t-49 102.5z" />
<glyph unicode="&#xab;" horiz-adv-x="1261" d="M150 519l454 -434l48 229l-291 279l310 257l7 191l-484 -402zM584 504l454 -434l48 229l-292 278l311 258l6 191l-483 -402z" />
<glyph unicode="&#xac;" horiz-adv-x="1612" d="M150 672l1114 20l-50 -405h248l-30 575h-1282v-190z" />
<glyph unicode="&#xad;" horiz-adv-x="846" d="M150 479l539 9l7 165l-539 -10z" />
<glyph unicode="&#xae;" horiz-adv-x="1782" d="M150 741q0 -305 217 -522q219 -219 524 -219t524 219q217 217 217 522q0 308 -217 525q-219 219 -524 219t-524 -219q-217 -217 -217 -525zM250 790q0 242 190 418q187 174 451 174q265 0 453 -174q186 -174 186 -418t-186 -416q-189 -175 -453 -175q-262 0 -451 175 q-190 176 -190 416zM586 338h205v356h56q14 0 51 -25q36 -26 95 -122l129 -209h172l-137 223q-47 74 -79 112q-36 39 -58 46q96 17 148.5 73t52.5 142q0 240 -350 240h-285v-836zM791 845v276h123q108 0 152.5 -31.5t44.5 -107.5q0 -75 -43.5 -106t-153.5 -31h-123z" />
<glyph unicode="&#xaf;" horiz-adv-x="898" d="M150 1378h598v148h-598v-148z" />
<glyph unicode="&#xb0;" horiz-adv-x="934" d="M150 1200q0 -135 90 -225t225 -90q134 0 226.5 91.5t92.5 223.5q0 135 -92 225q-89 95 -225 95q-133 0 -225 -93t-92 -227zM277 1267q0 73 55 123.5t135 50.5q79 0 134.5 -51t55.5 -123t-55 -121.5t-135 -49.5t-135 49.5t-55 121.5z" />
<glyph unicode="&#xb1;" horiz-adv-x="1582" d="M150 0h1282v190h-1282v-190zM150 727h557v-387h168v387h557v170h-557v387h-168v-387h-557v-170z" />
<glyph unicode="&#xb2;" horiz-adv-x="898" d="M150 668h598v165h-424l87 75q194 166 244 217q87 90 87 155q0 108 -87.5 174t-231.5 66q-111 0 -267 -56v-123q143 70 246 70q85 0 137 -40.5t52 -106.5q0 -13 -6.5 -27.5t-22.5 -34t-33.5 -37.5t-50.5 -47.5t-62 -54.5t-78.5 -68t-90.5 -79q-49 -43 -97 -87v-161z" />
<glyph unicode="&#xb3;" horiz-adv-x="919" d="M150 694q141 -41 252 -41q177 0 272 67t95 191q0 82 -50.5 136.5t-142.5 72.5q82 18 127 66t45 117q0 99 -84.5 158t-228.5 59q-108 0 -256 -35v-115q143 41 223 41q95 0 145 -30.5t50 -88.5q0 -60 -48.5 -91.5t-142.5 -31.5h-94v-108h86q219 0 219 -150q0 -65 -50 -85 t-170 -20q-136 0 -238 53z" />
<glyph unicode="&#xb4;" horiz-adv-x="833" d="M150 1320h170l363 418h-221z" />
<glyph unicode="&#xb5;" horiz-adv-x="1429" d="M150 1120l20 -1546h184l-10 553q84 -156 287 -156q192 0 293 158q30 -158 166 -158q35 0 92 36q55 36 97 59v148q-34 -14 -44 -17q-17 -6 -25 -6q-112 7 -112 67l10 862h-184l-10 -443q0 -336 -297 -336q-135 0 -204 74t-69 219l-10 496z" />
<glyph unicode="&#xb6;" horiz-adv-x="1433" d="M150 1071q0 -87 33 -165t85 -130t109.5 -85t112.5 -42l-70 -846h322v1567h180v-1567h361l-220 1690h-438q-215 0 -345 -116t-130 -306z" />
<glyph unicode="&#xb7;" horiz-adv-x="511" d="M150 584h211v254h-211v-254z" />
<glyph unicode="&#xb8;" horiz-adv-x="714" d="M150 -240v-131q86 -24 176 -24q238 0 238 180q0 91 -109 215h-119q88 -119 88 -178q0 -94 -119 -94q-92 0 -155 32z" />
<glyph unicode="&#xb9;" horiz-adv-x="872" d="M150 1348l223 41v-537h-204v-184h553v184h-205v651h-137l-230 -39v-116z" />
<glyph unicode="&#xba;" horiz-adv-x="1072" d="M150 1108q0 -190 104 -300t283 -110t282 109.5t103 300.5t-103 301.5t-282 110.5t-283 -110.5t-104 -301.5zM193 469h688v123h-688v-123zM306 1191q0 115 63 183t168 68q106 0 168 -67.5t62 -183.5q0 -113 -62.5 -180.5t-167.5 -67.5t-168 67.5t-63 180.5z" />
<glyph unicode="&#xbb;" horiz-adv-x="1251" d="M150 357l28 -233l490 393l-33 124l-447 442l-10 -191l287 -283zM583 334l28 -233l490 393l-33 124l-447 442l-10 -191l287 -283z" />
<glyph unicode="&#xbc;" horiz-adv-x="1972" d="M150 1348l223 41v-611h-204v-110h553v110h-205v725h-137l-230 -39v-116zM499 -29h160l932 1549h-160zM1129 188h414v-186h144v186h135v109h-135v540h-166l-392 -528v-121zM1234 297l309 419v-419h-309z" />
<glyph unicode="&#xbd;" horiz-adv-x="1981" d="M150 1348l223 41v-611h-204v-110h553v110h-205v725h-137l-230 -39v-116zM449 -29h160l932 1549h-160zM1233 2h598v114h-424l87 75q331 283 331 423q0 108 -87.5 174t-231.5 66q-111 0 -267 -56v-123q143 70 246 70q85 0 137 -40.5t52 -106.5q0 -94 -344 -399 q-49 -43 -97 -87v-110z" />
<glyph unicode="&#xbe;" horiz-adv-x="1960" d="M150 694q141 -41 252 -41q177 0 272 67t95 191q0 82 -50.5 136.5t-142.5 72.5q82 18 127 66t45 117q0 99 -84.5 158t-228.5 59q-108 0 -256 -35v-115q143 41 223 41q95 0 145 -30.5t50 -88.5q0 -60 -48.5 -91.5t-142.5 -31.5h-94v-108h86q219 0 219 -150 q0 -70 -60.5 -109.5t-168.5 -39.5q-136 0 -238 53v-121zM527 -29h160l932 1549h-160zM1117 188h414v-186h144v186h135v109h-135v540h-166l-392 -528v-121zM1222 297l309 419v-419h-309z" />
<glyph unicode="&#xbf;" horiz-adv-x="1097" d="M150 324q0 -159 112 -256t296 -97q203 0 389 113v248q-197 -137 -354 -137q-108 0 -174 55t-66 144q0 95 109 196l90 88q44 49 58.5 66.5t32 49t21 61t3.5 81.5v156h-160v-123q0 -95 -13 -135q-16 -48 -94 -125l-88 -86q-88 -85 -125 -154t-37 -145zM501 1239h202v254 h-202v-254z" />
<glyph unicode="&#xc0;" horiz-adv-x="1668" d="M150 0h273l76 243h673l56 -243h290l-589 1493h-189zM515 2298l206 -374h273l-282 374h-197zM560 481l274 828l275 -828h-549z" />
<glyph unicode="&#xc1;" horiz-adv-x="1668" d="M150 0h273l76 243h673l56 -243h290l-589 1493h-189zM560 481l274 828l275 -828h-549zM763 1903h170l363 418h-221z" />
<glyph unicode="&#xc2;" horiz-adv-x="1668" d="M150 0h273l76 243h673l56 -243h290l-589 1493h-189zM526 1502h139l180 245l180 -245h139l-245 376h-148zM560 481l274 828l275 -828h-549z" />
<glyph unicode="&#xc3;" horiz-adv-x="1668" d="M150 0h273l76 243h673l56 -243h290l-589 1493h-189zM515 1885h125q1 80 20 119q18 36 56 36q26 0 68 -39l57 -55q68 -61 139 -61q91 0 142 73.5t53 208.5h-125q-1 -81 -20 -118q-18 -37 -56 -37q-26 0 -68 39l-57 55q-68 61 -139 61q-91 0 -142 -73.5t-53 -208.5z M560 481l274 828l275 -828h-549z" />
<glyph unicode="&#xc4;" horiz-adv-x="1668" d="M150 0h273l76 243h673l56 -243h290l-589 1493h-189zM526 1625h218v217h-218v-217zM560 481l274 828l275 -828h-549zM945 1625h218v217h-218v-217z" />
<glyph unicode="&#xc5;" horiz-adv-x="1668" d="M150 0h273l76 243h673l56 -243h290l-589 1493h-189zM560 481l274 828l275 -828h-549zM571 1799q0 -115 79.5 -195t194.5 -80t194.5 80t79.5 195t-79.5 194.5t-194.5 79.5t-194.5 -79.5t-79.5 -194.5zM693 1799q0 64 43.5 107.5t108.5 43.5q64 0 108 -44t44 -107 q0 -64 -44 -108t-108 -44q-65 0 -108.5 43.5t-43.5 108.5z" />
<glyph unicode="&#xc6;" horiz-adv-x="2173" d="M103 0h375l-10 263h528v-263h963v260h-760v281h711v170h-711v612h741v170h-1212zM537 431l330 904h129v-904h-459z" />
<glyph unicode="&#xc7;" horiz-adv-x="1504" d="M150 745q0 360 195 567.5t534 207.5q267 0 475 -142v-213q-202 189 -463 189q-256 0 -392 -156.5t-136 -452.5q4 -254 133.5 -361t394.5 -107q261 0 463 189v-351q-201 -137 -449 -144q85 -104 85 -186q0 -180 -238 -180q-90 0 -176 24v131q63 -32 155 -32q119 0 119 94 q0 53 -71 154q-295 31 -462 234.5t-167 534.5z" />
<glyph unicode="&#xc8;" horiz-adv-x="1262" d="M150 0h962v310h-760v401h711v170h-711v442h742v170h-944v-1493zM269 2346l206 -374h273l-282 374h-197z" />
<glyph unicode="&#xc9;" horiz-adv-x="1262" d="M150 0h962v310h-760v401h711v170h-711v442h742v170h-944v-1493zM517 1951h170l363 418h-221z" />
<glyph unicode="&#xca;" horiz-adv-x="1262" d="M150 0h962v310h-760v401h711v170h-711v442h742v170h-944v-1493zM280 1550h139l180 245l180 -245h139l-245 376h-148z" />
<glyph unicode="&#xcb;" horiz-adv-x="1262" d="M150 0h962v310h-760v401h711v170h-711v442h742v170h-944v-1493zM280 1673h218v217h-218v-217zM699 1673h218v217h-218v-217z" />
<glyph unicode="&#xcc;" horiz-adv-x="542" d="M-49 2396l206 -374h273l-282 374h-197zM150 0h242q-12 225 -17.5 455.5t-8.5 582t-4 455.5h-172q-2 -124 -6 -365t-6.5 -390t-9.5 -356.5t-18 -381.5z" />
<glyph unicode="&#xcd;" horiz-adv-x="542" d="M150 0h242q-12 225 -17.5 455.5t-8.5 582t-4 455.5h-172q-2 -124 -6 -365t-6.5 -390t-9.5 -356.5t-18 -381.5zM199 2001h170l363 418h-221z" />
<glyph unicode="&#xce;" horiz-adv-x="542" d="M-38 1600h139l180 245l180 -245h139l-245 376h-148zM150 0h242q-12 225 -17.5 455.5t-8.5 582t-4 455.5h-172q-2 -124 -6 -365t-6.5 -390t-9.5 -356.5t-18 -381.5z" />
<glyph unicode="&#xcf;" horiz-adv-x="542" d="M-38 1723h218v217h-218v-217zM150 0h242q-12 225 -17.5 455.5t-8.5 582t-4 455.5h-172q-2 -124 -6 -365t-6.5 -390t-9.5 -356.5t-18 -381.5zM381 1723h218v217h-218v-217z" />
<glyph unicode="&#xd0;" horiz-adv-x="1771" d="M134 700h201v-700h416q432 0 635.5 181t203.5 567q0 384 -203 564.5t-636 180.5h-416v-649h-201v-144zM538 306v394h336v144h-336v483h243q309 0 452.5 -139.5t143.5 -439.5q0 -60 -5.5 -110t-17.5 -90.5t-27.5 -72.5t-41 -56.5t-52 -42.5t-65 -30.5t-76.5 -20t-91 -12 t-103 -6t-117 -1.5h-243z" />
<glyph unicode="&#xd1;" horiz-adv-x="1450" d="M150 0h256l-60 1249l662 -1249h292v1493h-186l-30 -1209l-642 1179h-252zM407 1983h125q1 80 20 119q18 36 56 36q26 0 68 -39l57 -55q68 -61 139 -61q91 0 142 73.5t53 208.5h-125q-1 -81 -20 -118q-18 -37 -56 -37q-26 0 -68 39l-57 55q-68 61 -139 61 q-91 0 -142 -73.5t-53 -208.5z" />
<glyph unicode="&#xd2;" horiz-adv-x="1682" d="M150 745q0 -354 188.5 -564t503.5 -210q314 0 502 210.5t188 563.5q0 354 -188 564.5t-502 210.5q-315 0 -503.5 -210.5t-188.5 -564.5zM363 745q0 282 129.5 446.5t349.5 164.5t348.5 -164.5t128.5 -446.5q0 -113 -32.5 -190.5t-97.5 -120.5t-148 -61t-199 -18 t-199.5 18t-149 61t-98 120.5t-32.5 190.5zM511 2396l206 -374h273l-282 374h-197z" />
<glyph unicode="&#xd3;" horiz-adv-x="1682" d="M150 745q0 -354 188.5 -564t503.5 -210q314 0 502 210.5t188 563.5q0 354 -188 564.5t-502 210.5q-315 0 -503.5 -210.5t-188.5 -564.5zM363 745q0 282 129.5 446.5t349.5 164.5t348.5 -164.5t128.5 -446.5q0 -113 -32.5 -190.5t-97.5 -120.5t-148 -61t-199 -18 t-199.5 18t-149 61t-98 120.5t-32.5 190.5zM759 2001h170l363 418h-221z" />
<glyph unicode="&#xd4;" horiz-adv-x="1682" d="M150 745q0 -354 188.5 -564t503.5 -210q314 0 502 210.5t188 563.5q0 354 -188 564.5t-502 210.5q-315 0 -503.5 -210.5t-188.5 -564.5zM363 745q0 282 129.5 446.5t349.5 164.5t348.5 -164.5t128.5 -446.5q0 -113 -32.5 -190.5t-97.5 -120.5t-148 -61t-199 -18 t-199.5 18t-149 61t-98 120.5t-32.5 190.5zM522 1600h139l180 245l180 -245h139l-245 376h-148z" />
<glyph unicode="&#xd5;" horiz-adv-x="1682" d="M150 745q0 -354 188.5 -564t503.5 -210q314 0 502 210.5t188 563.5q0 354 -188 564.5t-502 210.5q-315 0 -503.5 -210.5t-188.5 -564.5zM363 745q0 282 129.5 446.5t349.5 164.5t348.5 -164.5t128.5 -446.5q0 -113 -32.5 -190.5t-97.5 -120.5t-148 -61t-199 -18 t-199.5 18t-149 61t-98 120.5t-32.5 190.5zM511 1983h125q1 80 20 119q18 36 56 36q26 0 68 -39l57 -55q68 -61 139 -61q91 0 142 73.5t53 208.5h-125q-1 -81 -20 -118q-18 -37 -56 -37q-26 0 -68 39l-57 55q-68 61 -139 61q-91 0 -142 -73.5t-53 -208.5z" />
<glyph unicode="&#xd6;" horiz-adv-x="1682" d="M150 745q0 -354 188.5 -564t503.5 -210q314 0 502 210.5t188 563.5q0 354 -188 564.5t-502 210.5q-315 0 -503.5 -210.5t-188.5 -564.5zM363 745q0 282 129.5 446.5t349.5 164.5t348.5 -164.5t128.5 -446.5q0 -113 -32.5 -190.5t-97.5 -120.5t-148 -61t-199 -18 t-199.5 18t-149 61t-98 120.5t-32.5 190.5zM522 1723h218v217h-218v-217zM941 1723h218v217h-218v-217z" />
<glyph unicode="&#xd7;" horiz-adv-x="1405" d="M150 284l168 -171l379 379l379 -379l169 171l-377 377l387 389l-169 171l-389 -389l-359 359l-168 -171l356 -359z" />
<glyph unicode="&#xd8;" horiz-adv-x="1682" d="M150 745q0 354 188.5 564.5t503.5 210.5q115 0 214 -30l34 98l150 -5l-45 -152q160 -92 248.5 -269.5t88.5 -416.5q0 -353 -188 -563.5t-502 -210.5q-47 0 -82 4l-18 -59l-230 8l37 105q-188 82 -293.5 269t-105.5 447zM363 745q0 -174 77 -262.5t226 -114.5l334 962 q-73 26 -158 26q-220 0 -349.5 -164.5t-129.5 -446.5zM873 355q108 2 186.5 22t139 63.5t90.5 119.5t30 185q0 166 -46.5 294.5t-132.5 207.5z" />
<glyph unicode="&#xd9;" horiz-adv-x="1443" d="M150 561q0 -292 144.5 -441t427.5 -149q282 0 426.5 149t144.5 441v932h-213l19 -767q6 -236 -87 -343.5t-290 -107.5q-198 0 -291.5 107.5t-87.5 343.5l20 767h-213v-932zM391 2396l206 -374h273l-282 374h-197z" />
<glyph unicode="&#xda;" horiz-adv-x="1443" d="M150 561q0 -292 144.5 -441t427.5 -149q282 0 426.5 149t144.5 441v932h-213l19 -767q6 -236 -87 -343.5t-290 -107.5q-198 0 -291.5 107.5t-87.5 343.5l20 767h-213v-932zM639 2001h170l363 418h-221z" />
<glyph unicode="&#xdb;" horiz-adv-x="1443" d="M150 561q0 -292 144.5 -441t427.5 -149q282 0 426.5 149t144.5 441v932h-213l19 -767q6 -236 -87 -343.5t-290 -107.5q-198 0 -291.5 107.5t-87.5 343.5l20 767h-213v-932zM402 1600h139l180 245l180 -245h139l-245 376h-148z" />
<glyph unicode="&#xdc;" horiz-adv-x="1443" d="M150 561q0 -292 144.5 -441t427.5 -149q282 0 426.5 149t144.5 441v932h-213l19 -767q6 -236 -87 -343.5t-290 -107.5q-198 0 -291.5 107.5t-87.5 343.5l20 767h-213v-932zM402 1723h218v217h-218v-217zM821 1723h218v217h-218v-217z" />
<glyph unicode="&#xdd;" horiz-adv-x="1559" d="M150 1493l488 -982v-511h273v511l498 982h-217l-411 -764l-414 764h-217zM696 2001h170l363 418h-221z" />
<glyph unicode="&#xde;" horiz-adv-x="1264" d="M150 0h202v338h254q251 0 379.5 113t128.5 333t-128.5 332.5t-379.5 112.5h-254v264h-202v-1493zM352 504v559h254q142 0 218.5 -72.5t76.5 -206.5t-77 -207t-218 -73h-254z" />
<glyph unicode="&#xdf;" horiz-adv-x="1422" d="M213 0h277l-50 1133q20 169 87 239.5t199 70.5q38 0 60.5 -1.5t50.5 -6.5t46.5 -15.5t41 -28.5t41 -45.5t39.5 -66.5t43 -91q-98 -14 -164 -43t-101 -73t-49 -94t-14 -118q0 -53 20.5 -106.5t41.5 -84t60 -80.5q7 -9 11 -14l82 -55q101 -62 131 -104q29 -43 29 -85 q0 -61 -60 -93.5t-176 -32.5q-127 0 -285 59v-244q149 -49 273 -49q211 0 323.5 91.5t112.5 263.5q0 53 -10 91t-38.5 79.5t-79.5 83t-134 94.5l-57 37q-65 42 -94 82.5t-29 87.5q0 96 84 153.5t235 65.5q-3 224 -112.5 340t-317.5 116q-218 0 -337.5 -109.5t-119.5 -309.5z " />
<glyph unicode="&#xe0;" horiz-adv-x="1246" d="M150 326q0 -162 101.5 -258.5t273.5 -96.5q258 0 387 189v-160h184v639q0 256 -120 382t-363 126q-179 0 -381 -78v-150q169 92 362 92q159 -10 238.5 -83.5t79.5 -202.5v-18h-258q-504 0 -504 -381zM304 376q1 73 29 113.5t102 61.5t208 21h166v-41q0 -90 -13 -145 t-46.5 -85t-78 -40t-118.5 -10q-57 0 -93.5 4t-72 16t-56 38t-27.5 67zM321 2023l206 -374h273l-282 374h-197z" />
<glyph unicode="&#xe1;" horiz-adv-x="1246" d="M150 326q0 -162 101.5 -258.5t273.5 -96.5q258 0 387 189v-160h184v639q0 256 -120 382t-363 126q-179 0 -381 -78v-150q169 92 362 92q159 -10 238.5 -83.5t79.5 -202.5v-18h-258q-504 0 -504 -381zM304 376q1 73 29 113.5t102 61.5t208 21h166v-41q0 -90 -13 -145 t-46.5 -85t-78 -40t-118.5 -10q-57 0 -93.5 4t-72 16t-56 38t-27.5 67zM569 1628h170l363 418h-221z" />
<glyph unicode="&#xe2;" horiz-adv-x="1246" d="M150 326q0 -162 101.5 -258.5t273.5 -96.5q258 0 387 189v-160h184v639q0 256 -120 382t-363 126q-179 0 -381 -78v-150q169 92 362 92q159 -10 238.5 -83.5t79.5 -202.5v-18h-258q-504 0 -504 -381zM304 376q1 73 29 113.5t102 61.5t208 21h166v-41q0 -90 -13 -145 t-46.5 -85t-78 -40t-118.5 -10q-57 0 -93.5 4t-72 16t-56 38t-27.5 67zM332 1227h139l180 245l180 -245h139l-245 376h-148z" />
<glyph unicode="&#xe3;" horiz-adv-x="1246" d="M150 326q0 -162 101.5 -258.5t273.5 -96.5q258 0 387 189v-160h184v639q0 256 -120 382t-363 126q-179 0 -381 -78v-150q169 92 362 92q159 -10 238.5 -83.5t79.5 -202.5v-18h-258q-504 0 -504 -381zM304 376q1 73 29 113.5t102 61.5t208 21h166v-41q0 -90 -13 -145 t-46.5 -85t-78 -40t-118.5 -10q-57 0 -93.5 4t-72 16t-56 38t-27.5 67zM321 1610h125q1 80 20 119q18 36 56 36q26 0 68 -39l57 -55q68 -61 139 -61q91 0 142 73.5t53 208.5h-125q-1 -81 -20 -118q-18 -37 -56 -37q-26 0 -68 39l-57 55q-68 61 -139 61q-91 0 -142 -73.5 t-53 -208.5z" />
<glyph unicode="&#xe4;" horiz-adv-x="1246" d="M150 326q0 -162 101.5 -258.5t273.5 -96.5q258 0 387 189v-160h184v639q0 256 -120 382t-363 126q-179 0 -381 -78v-150q169 92 362 92q159 -10 238.5 -83.5t79.5 -202.5v-18h-258q-504 0 -504 -381zM304 376q1 73 29 113.5t102 61.5t208 21h166v-41q0 -90 -13 -145 t-46.5 -85t-78 -40t-118.5 -10q-57 0 -93.5 4t-72 16t-56 38t-27.5 67zM332 1350h218v217h-218v-217zM751 1350h218v217h-218v-217z" />
<glyph unicode="&#xe5;" horiz-adv-x="1246" d="M150 326q0 -162 101.5 -258.5t273.5 -96.5q258 0 387 189v-160h184v639q0 256 -120 382t-363 126q-179 0 -381 -78v-150q169 92 362 92q159 -10 238.5 -83.5t79.5 -202.5v-18h-258q-504 0 -504 -381zM304 376q1 73 29 113.5t102 61.5t208 21h166v-41q0 -90 -13 -145 t-46.5 -85t-78 -40t-118.5 -10q-57 0 -93.5 4t-72 16t-56 38t-27.5 67zM377 1524q0 -115 79.5 -195t194.5 -80t194.5 80t79.5 195t-79.5 194.5t-194.5 79.5t-194.5 -79.5t-79.5 -194.5zM499 1524q0 64 43.5 107.5t108.5 43.5q64 0 108 -44t44 -107q0 -64 -44 -108t-108 -44 q-65 0 -108.5 43.5t-43.5 108.5z" />
<glyph unicode="&#xe6;" horiz-adv-x="2218" d="M224 326q0 -168 105 -261.5t294 -93.5q287 0 432 240q155 -240 492 -240q66 0 146 20t128 38.5t140 57.5v264q-199 -106 -404 -106q-175 0 -280.5 96t-118.5 235h846v90q0 128 -58.5 236.5t-172 176.5t-259.5 68q-266 0 -418 -184q-54 88 -160.5 136t-248.5 48 q-179 0 -381 -78v-130q169 92 362 92q71 0 133.5 -25.5t101.5 -64t61 -80t22 -76.5v-18h-258q-260 0 -382 -99.5t-122 -341.5zM408 395q0 59 13.5 98.5t39.5 65.5t75.5 40t110.5 19t156 5h183v-33q0 -186 -89.5 -275.5t-248.5 -89.5q-111 0 -175.5 46t-64.5 124zM1164 719 q7 60 34.5 117t71.5 104t108 76t138 29q87 0 158.5 -51.5t107.5 -125.5t37 -149h-655z" />
<glyph unicode="&#xe7;" horiz-adv-x="1186" d="M150 559q0 274 150.5 431t412.5 157q173 0 323 -70v-162q-157 86 -315 86q-177 0 -272 -117t-95 -325q14 -142 95.5 -201.5t263.5 -69.5q13 0 61.5 -1t69.5 0t59 5t68.5 14t60.5 26l4 -289q-130 -61 -280 -70q86 -105 86 -188q0 -180 -238 -180q-90 0 -176 24v131 q63 -32 155 -32q119 0 119 94q0 54 -69 152q-224 22 -353.5 178t-129.5 407z" />
<glyph unicode="&#xe8;" d="M150 549q0 -264 155.5 -416t425.5 -162q211 0 415 86l-4 254q-47 -25 -94.5 -39.5t-107.5 -20t-93.5 -6.5t-108.5 -1q-80 4 -135 14t-107.5 33t-83.5 62t-50 102t-20 151h836v70q-19 237 -134.5 349t-343.5 122q-251 0 -395.5 -160t-154.5 -438zM343 2023l206 -374h273 l-282 374h-197zM362 766q0 51 24.5 101.5t67.5 91t108 66t139 25.5q65 0 122.5 -26.5t96.5 -68.5t64.5 -91t33.5 -98h-656z" />
<glyph unicode="&#xe9;" d="M150 549q0 -264 155.5 -416t425.5 -162q211 0 415 86l-4 254q-47 -25 -94.5 -39.5t-107.5 -20t-93.5 -6.5t-108.5 -1q-80 4 -135 14t-107.5 33t-83.5 62t-50 102t-20 151h836v70q-19 237 -134.5 349t-343.5 122q-251 0 -395.5 -160t-154.5 -438zM362 766q0 51 24.5 101.5 t67.5 91t108 66t139 25.5q65 0 122.5 -26.5t96.5 -68.5t64.5 -91t33.5 -98h-656zM591 1628h170l363 418h-221z" />
<glyph unicode="&#xea;" d="M150 549q0 -264 155.5 -416t425.5 -162q211 0 415 86l-4 254q-47 -25 -94.5 -39.5t-107.5 -20t-93.5 -6.5t-108.5 -1q-80 4 -135 14t-107.5 33t-83.5 62t-50 102t-20 151h836v70q-19 237 -134.5 349t-343.5 122q-251 0 -395.5 -160t-154.5 -438zM354 1227h139l180 245 l180 -245h139l-245 376h-148zM362 766q0 51 24.5 101.5t67.5 91t108 66t139 25.5q65 0 122.5 -26.5t96.5 -68.5t64.5 -91t33.5 -98h-656z" />
<glyph unicode="&#xeb;" d="M150 549q0 -264 155.5 -416t425.5 -162q211 0 415 86l-4 254q-47 -25 -94.5 -39.5t-107.5 -20t-93.5 -6.5t-108.5 -1q-80 4 -135 14t-107.5 33t-83.5 62t-50 102t-20 151h836v70q-19 237 -134.5 349t-343.5 122q-251 0 -395.5 -160t-154.5 -438zM354 1350h218v217h-218 v-217zM362 766q0 51 24.5 101.5t67.5 91t108 66t139 25.5q65 0 122.5 -26.5t96.5 -68.5t64.5 -91t33.5 -98h-656zM773 1350h218v217h-218v-217z" />
<glyph unicode="&#xec;" horiz-adv-x="785" d="M150 1638l206 -374h273l-282 374h-197zM451 0h184v1120h-184v-1120z" />
<glyph unicode="&#xed;" horiz-adv-x="833" d="M150 1220h170l363 418h-221zM259 0h184v1120h-184v-1120z" />
<glyph unicode="&#xee;" horiz-adv-x="938" d="M150 1262h139l180 245l180 -245h139l-245 376h-148zM432 0h184v1120h-184v-1120z" />
<glyph unicode="&#xef;" horiz-adv-x="937" d="M150 1350h218v217h-218v-217zM375 0h184v1120h-184v-1120zM569 1350h218v217h-218v-217z" />
<glyph unicode="&#xf0;" d="M150 537q0 -255 141.5 -410.5t372.5 -155.5t372.5 155.5t141.5 410.5q0 173 -57 317t-183 287l-164 186l295 98l-33 97l-333 -111l-127 145h-228l181 -204l-281 -92l33 -99l319 107l159 -180q-80 10 -112 10q-221 0 -359 -155.5t-138 -405.5zM344 537q0 195 92.5 303 t259.5 108q83 0 179 -33q108 -137 108 -378q0 -53 -8 -93.5t-20.5 -68t-36.5 -46.5t-46.5 -29.5t-60.5 -16t-68 -7t-79 -1.5q-38 0 -62.5 0.5t-56 3.5t-51.5 8t-43.5 14.5t-37.5 23t-29 33t-22.5 45t-12.5 59.5t-5 75z" />
<glyph unicode="&#xf1;" horiz-adv-x="1308" d="M150 0h255l-30 643q0 168 83 261t248 93q121 0 174.5 -77.5t53.5 -239.5l-40 -680h264l-30 676q-20 471 -401 471q-55 0 -108 -13t-100.5 -38t-80 -46.5t-73.5 -53.5v134h-185zM305 1610h125q1 80 20 119q18 36 56 36q26 0 68 -39l57 -55q68 -61 139 -61q91 0 142 73.5 t53 208.5h-125q-1 -81 -20 -118q-18 -37 -56 -37q-26 0 -68 39l-57 55q-68 61 -139 61q-91 0 -142 -73.5t-53 -208.5z" />
<glyph unicode="&#xf2;" d="M150 559q0 -275 136.5 -431.5t377.5 -156.5q240 0 377 156.5t137 431.5q0 276 -137 432t-377 156q-241 0 -377.5 -156t-136.5 -432zM334 2023l206 -374h273l-282 374h-197zM344 591q0 195 86 307.5t234 112.5q147 0 233 -113.5t86 -306.5q0 -77 -15 -131.5t-40.5 -87.5 t-67.5 -51.5t-87 -25t-109 -6.5q-65 0 -110.5 6.5t-87.5 25t-67 51.5t-40 87.5t-15 131.5z" />
<glyph unicode="&#xf3;" d="M150 559q0 -275 136.5 -431.5t377.5 -156.5q240 0 377 156.5t137 431.5q0 276 -137 432t-377 156q-241 0 -377.5 -156t-136.5 -432zM344 591q0 195 86 307.5t234 112.5q147 0 233 -113.5t86 -306.5q0 -77 -15 -131.5t-40.5 -87.5t-67.5 -51.5t-87 -25t-109 -6.5 q-65 0 -110.5 6.5t-87.5 25t-67 51.5t-40 87.5t-15 131.5zM582 1628h170l363 418h-221z" />
<glyph unicode="&#xf4;" d="M150 559q0 -275 136.5 -431.5t377.5 -156.5q240 0 377 156.5t137 431.5q0 276 -137 432t-377 156q-241 0 -377.5 -156t-136.5 -432zM344 591q0 195 86 307.5t234 112.5q147 0 233 -113.5t86 -306.5q0 -77 -15 -131.5t-40.5 -87.5t-67.5 -51.5t-87 -25t-109 -6.5 q-65 0 -110.5 6.5t-87.5 25t-67 51.5t-40 87.5t-15 131.5zM345 1227h139l180 245l180 -245h139l-245 376h-148z" />
<glyph unicode="&#xf5;" d="M150 559q0 -275 136.5 -431.5t377.5 -156.5q240 0 377 156.5t137 431.5q0 276 -137 432t-377 156q-241 0 -377.5 -156t-136.5 -432zM334 1610h125q1 80 20 119q18 36 56 36q26 0 68 -39l57 -55q68 -61 139 -61q91 0 142 73.5t53 208.5h-125q-1 -81 -20 -118 q-18 -37 -56 -37q-26 0 -68 39l-57 55q-68 61 -139 61q-91 0 -142 -73.5t-53 -208.5zM344 591q0 195 86 307.5t234 112.5q147 0 233 -113.5t86 -306.5q0 -77 -15 -131.5t-40.5 -87.5t-67.5 -51.5t-87 -25t-109 -6.5q-65 0 -110.5 6.5t-87.5 25t-67 51.5t-40 87.5t-15 131.5z " />
<glyph unicode="&#xf6;" d="M150 559q0 -275 136.5 -431.5t377.5 -156.5q240 0 377 156.5t137 431.5q0 276 -137 432t-377 156q-241 0 -377.5 -156t-136.5 -432zM344 591q0 195 86 307.5t234 112.5q147 0 233 -113.5t86 -306.5q0 -77 -15 -131.5t-40.5 -87.5t-67.5 -51.5t-87 -25t-109 -6.5 q-65 0 -110.5 6.5t-87.5 25t-67 51.5t-40 87.5t-15 131.5zM345 1350h218v217h-218v-217zM764 1350h218v217h-218v-217z" />
<glyph unicode="&#xf7;" horiz-adv-x="1632" d="M150 507h1332v220h-1332v-220zM668 50h296v295h-296v-295zM668 889h296v296h-296v-296z" />
<glyph unicode="&#xf8;" horiz-adv-x="1410" d="M150 -16l96 -78l139 168q127 -103 320 -103q240 0 377 156.5t137 431.5q0 240 -107 395l146 179l-95 79l-139 -168q-133 103 -319 103q-241 0 -377.5 -156t-136.5 -432q0 -239 108 -393zM385 545q0 211 84.5 328.5t235.5 117.5q124 0 207 -82l-488 -592q-39 88 -39 228z M496 209l487 592q41 -89 41 -242q0 -200 -86 -316t-233 -116q-128 0 -209 82z" />
<glyph unicode="&#xf9;" horiz-adv-x="1248" d="M150 442q0 -231 100 -351t293 -120q229 0 361 201l-10 -172h184l20 1120h-204l-20 -475q-10 -167 -92.5 -260.5t-229.5 -93.5q-121 0 -179.5 78t-68.5 240v511h-154v-678zM301 2023l206 -374h273l-282 374h-197z" />
<glyph unicode="&#xfa;" horiz-adv-x="1248" d="M150 442q0 -231 100 -351t293 -120q229 0 361 201l-10 -172h184l20 1120h-204l-20 -475q-10 -167 -92.5 -260.5t-229.5 -93.5q-121 0 -179.5 78t-68.5 240v511h-154v-678zM549 1628h170l363 418h-221z" />
<glyph unicode="&#xfb;" horiz-adv-x="1248" d="M150 442q0 -231 100 -351t293 -120q229 0 361 201l-10 -172h184l20 1120h-204l-20 -475q-10 -167 -92.5 -260.5t-229.5 -93.5q-121 0 -179.5 78t-68.5 240v511h-154v-678zM312 1227h139l180 245l180 -245h139l-245 376h-148z" />
<glyph unicode="&#xfc;" horiz-adv-x="1248" d="M150 442q0 -231 100 -351t293 -120q229 0 361 201l-10 -172h184l20 1120h-204l-20 -475q-10 -167 -92.5 -260.5t-229.5 -93.5q-121 0 -179.5 78t-68.5 240v511h-154v-678zM312 1350h218v217h-218v-217zM731 1350h218v217h-218v-217z" />
<glyph unicode="&#xfd;" horiz-adv-x="1390" d="M150 1120l479 -1027l-79 -159q-32 -40 -49 -58.5t-43 -40t-54 -29.5t-65 -8h-128v-244h167q67 0 113 12.5t94 48.5t91 104t92 177l472 1224h-195l-304 -651l-396 651h-195zM525 1628h170l363 418h-221z" />
<glyph unicode="&#xfe;" horiz-adv-x="1278" d="M275 -426h185v594q114 -197 358 -197q204 0 331.5 162.5t127.5 425.5t-127.5 425.5t-331.5 162.5q-244 0 -358 -197v606h-185v-1982zM460 559q0 203 83.5 318.5t229.5 115.5t229.5 -115.5t83.5 -318.5t-83.5 -318.5t-229.5 -115.5t-229.5 115.5t-83.5 318.5z" />
<glyph unicode="&#xff;" horiz-adv-x="1390" d="M150 1120l479 -1027l-79 -159q-32 -40 -49 -58.5t-43 -40t-54 -29.5t-65 -8h-128v-244h167q67 0 113 12.5t94 48.5t91 104t92 177l472 1224h-195l-304 -651l-396 651h-195zM288 1350h218v217h-218v-217zM707 1350h218v217h-218v-217z" />
<glyph unicode="&#x152;" horiz-adv-x="2334" d="M194 748q0 -368 223.5 -558t656.5 -190h1065v280h-760v501h731v170h-731v412h742v130h-1047q-432 0 -656 -189.5t-224 -555.5zM407 748q0 323 157.5 469t483.5 146h129v-1083h-129q-125 0 -230.5 25.5t-180.5 70t-127.5 104.5t-77.5 127.5t-25 140.5z" />
<glyph unicode="&#x153;" horiz-adv-x="2306" d="M220 559q0 -275 136.5 -431.5t377.5 -156.5q278 0 420 219q163 -219 483 -219q210 0 414 86v234q-197 -104 -404 -104q-52 0 -87 2t-75.5 9t-67 21t-55 37.5t-46 59t-33 84.5t-24 115.5t-11.5 150.5h846v90q0 41 -21.5 92t-65 103.5t-100.5 96t-137 71.5t-166 28 q-143 0 -259 -56t-194 -163q-134 219 -417 219q-241 0 -377.5 -156t-136.5 -432zM414 623q0 185 86 291.5t234 106.5q147 0 233 -107.5t86 -290.5q0 -184 -86 -291t-233 -107q-149 0 -234.5 106.5t-85.5 291.5zM1254 799q8 36 35.5 76.5t70.5 78.5t108.5 62.5t137.5 24.5 q65 0 123.5 -26t96 -64t60 -78.5t23.5 -73.5h-655z" />
<glyph unicode="&#x178;" horiz-adv-x="1559" d="M150 1493l488 -982v-511h273v511l498 982h-217l-411 -764l-414 764h-217zM459 1723h218v217h-218v-217zM878 1723h218v217h-218v-217z" />
<glyph unicode="&#x2c6;" horiz-adv-x="938" d="M150 1262h139l180 245l180 -245h139l-245 376h-148z" />
<glyph unicode="&#x2dc;" horiz-adv-x="960" d="M150 1309h125q1 80 20 119q18 36 56 36q26 0 68 -39l57 -55q68 -61 139 -61q91 0 142 73.5t53 208.5h-125q-1 -81 -20 -118q-18 -37 -56 -37q-26 0 -68 39l-57 55q-68 61 -139 61q-91 0 -142 -73.5t-53 -208.5z" />
<glyph unicode="&#x2000;" horiz-adv-x="1209" />
<glyph unicode="&#x2001;" horiz-adv-x="2419" />
<glyph unicode="&#x2002;" horiz-adv-x="1209" />
<glyph unicode="&#x2003;" horiz-adv-x="2419" />
<glyph unicode="&#x2004;" horiz-adv-x="806" />
<glyph unicode="&#x2005;" horiz-adv-x="604" />
<glyph unicode="&#x2006;" horiz-adv-x="403" />
<glyph unicode="&#x2007;" horiz-adv-x="403" />
<glyph unicode="&#x2008;" horiz-adv-x="302" />
<glyph unicode="&#x2009;" horiz-adv-x="483" />
<glyph unicode="&#x200a;" horiz-adv-x="134" />
<glyph unicode="&#x2010;" horiz-adv-x="846" d="M150 479l539 9l7 165l-539 -10z" />
<glyph unicode="&#x2011;" horiz-adv-x="846" d="M150 479l539 9l7 165l-539 -10z" />
<glyph unicode="&#x2012;" horiz-adv-x="846" d="M150 479l539 9l7 165l-539 -10z" />
<glyph unicode="&#x2013;" horiz-adv-x="1324" d="M150 489h1024v144h-1024v-144z" />
<glyph unicode="&#x2014;" horiz-adv-x="2348" d="M150 489h2048v144h-2048v-144z" />
<glyph unicode="&#x2018;" horiz-adv-x="618" d="M150 914h260v212l100 393h-159l-201 -393v-212z" />
<glyph unicode="&#x2019;" horiz-adv-x="589" d="M150 939h156l199 386v185h-256v-185z" />
<glyph unicode="&#x201a;" horiz-adv-x="593" d="M150 -238h129l164 320v172h-211v-172z" />
<glyph unicode="&#x201c;" horiz-adv-x="1174" d="M150 881h262v215l102 397h-160l-204 -397v-215zM660 881h262v215l102 397h-160l-204 -397v-215z" />
<glyph unicode="&#x201d;" horiz-adv-x="1117" d="M150 921h150l191 372v200h-246v-200zM626 921h150l191 372v200h-245v-200z" />
<glyph unicode="&#x201e;" horiz-adv-x="1183" d="M150 -238h162l206 402v216h-265v-216zM665 -238h162l206 402v216h-265v-216z" />
<glyph unicode="&#x2022;" horiz-adv-x="894" d="M150 762q0 -125 86 -211t211 -86t211 86t86 211q0 124 -85.5 209.5t-209.5 85.5q-126 0 -212.5 -85.5t-86.5 -209.5z" />
<glyph unicode="&#x2026;" horiz-adv-x="1986" d="M150 0h323v364h-323v-364zM832 0h322v364h-322v-364zM1513 0h323v364h-323v-364z" />
<glyph unicode="&#x202f;" horiz-adv-x="483" />
<glyph unicode="&#x2039;" horiz-adv-x="769" d="M150 559l469 -418v191l-301 268l301 268v191l-469 -418v-82z" />
<glyph unicode="&#x203a;" horiz-adv-x="769" d="M150 141l469 418v82l-469 418v-191l301 -268l-301 -268v-191z" />
<glyph unicode="&#x205f;" horiz-adv-x="604" />
<glyph unicode="&#x20ac;" horiz-adv-x="1467" d="M150 480h221q31 -224 187 -366.5t389 -142.5q191 0 370 144v301q-102 -106 -186.5 -150.5t-185.5 -44.5q-74 0 -143 29.5t-115.5 72t-76.5 84.5t-36 73h364l56 163h-446q-3 32 -3 102q0 73 3 105h538l55 123h-577q34 194 136.5 315.5t254.5 121.5q103 0 187.5 -45.5 t174.5 -149.5v163q-173 142 -370 142q-236 0 -391 -145t-195 -402h-156l-55 -123h194v-46q-1 -16 -1 -59q0 -40 1 -55v-47h-139z" />
<glyph unicode="&#x2122;" horiz-adv-x="1641" d="M150 1399h201l-30 -484h174l-30 484h203v94h-518v-94zM751 915h174l-30 484l183 -433h95l175 433l-30 -484h173l-20 578h-170l-174 -326l-164 326h-172z" />
<glyph unicode="&#xe000;" horiz-adv-x="1120" d="M0 0v1120h1120v-1120h-1120z" />
</font>
</defs>
</svg>
